[Цитировать]
Kryl

«Лабиринт был всего лишь началом»- Информация
Название: Бегущий в лабиринте: Испытание огнём
Оригинальное название: Maze Runner: The Scorch Trials
Год выхода: 2015
Жанр: Фантастика, боевик, триллер
Режиссер: Уэс Болл
Сценарий: Т.С. Наулин, Джеймс Дашнер
Продюсер: Марти Бауэн, Вик Годфри, Эллен Голдсмит-Вейн
В ролях: Дилан О’Брайен, Кая Скоделарио, Ки Хонг Ли, Томас Сэнгстер, Декстер Дарден, Алекс Дж. Флорес, Джейкоб Лофленд, Роза Салазар, Джанкарло Эспозито, Патришия Кларксон
--Сюжет:
Лабиринт пройден, но Томасу, Терезе, Минхо и прочим глэйдерам не приходится расслабляться. Таинственное руководство ПОРОКА — секретной организации, устроившей гонки на выживание — назначает ребятам новые, смертельно опасные испытания. На сей раз их ждет переход по раскаленной пустыне и встреча с жертвами неизлечимой болезни, которые отличаются буйным нравом и непредсказуемым поведением.- - Страна: США
Продолжительность: 02:11:42

Файл
Кодек: MPEG4/ISO/AVC H.264
Формат: MKV
Качество: BDRip 720p | 60 fps
Видео: 1280 x 534 (2.397) | 59.940 fps | 10.0 Мбит/сек
Аудио 1: AC3 | 5.1 | 48 kHz | 448 kbps | 16 bit | Дубляж |
Аудио 2: AC3 | 5.1 | 48 kHz | 640 kbps | 16 bit | ENG |
Субтитры: Русские | Полные, Английские | Полные

MedifInfo

Видео
Идентификатор : 1
Формат : AVC
Формат/Информация : Advanced Video Codec
Профиль формата : High@L4.1
Параметр CABAC формата : Да
Параметр ReFrames формата : 3 кадра
Идентификатор кодека : V_MPEG4/ISO/AVC
Продолжительность : 2 ч. 11 м.
Вид битрейта : Переменный
Битрейт : 9711 Кбит/сек
Максимальный битрейт : 10000 Кбит/сек
Ширина : 1280 пикселей
Высота : 534 пикселя
Соотношение сторон : 2,40:1
Режим частоты кадров : Постоянный
Частота кадров : 59,880 кадров/сек
Частота кадров в оригинале : 59,940 кадров/сек
Стандарт вещания : PAL
Цветовое пространство : YUV
Субдискретизация насыщенности : 4:2:0
Битовая глубина : 8 бит
Тип развёртки : Прогрессивная
Бит/(Пиксели*Кадры) : 0.237
Размер потока : 8,93 Гбайт (88%)
Заголовок : www.60-fps.org
Язык : English
Default : Да
Forced : Нет
Основные цвета : BT.601 NTSC
Характеристики трансфера : BT.601
Коэффициенты матрицы : BT.601
colour_range : Limited
Аудио #1
Идентификатор : 2
Формат : AC-3
Формат/Информация : Audio Coding 3
Расширение режима : CM (complete main)
Параметр Endianness формата : Big
Идентификатор кодека : A_AC3
Продолжительность : 2 ч. 11 м.
Вид битрейта : Постоянный
Битрейт : 448 Кбит/сек
Каналы : 6 каналов
Расположение каналов : Front: L C R, Side: L R, LFE
Частота : 48,0 КГц
Битовая глубина : 16 бит
Метод сжатия : С потерями
Размер потока : 422 Мбайт (4%)
Заголовок : Dub
Язык : Russian
Default : Да
Forced : Нет
Аудио #2
Идентификатор : 3
Формат : AC-3
Формат/Информация : Audio Coding 3
Расширение режима : CM (complete main)
Параметр Endianness формата : Big
Идентификатор кодека : A_AC3
Продолжительность : 2 ч. 11 м.
Вид битрейта : Постоянный
Битрейт : 640 Кбит/сек
Каналы : 6 каналов
Расположение каналов : Front: L C R, Side: L R, LFE
Частота : 48,0 КГц
Битовая глубина : 16 бит
Метод сжатия : С потерями
Размер потока : 603 Мбайт (6%)
Заголовок : Eng
Язык : English
Default : Нет
Forced : Нет
Текст #1
Идентификатор : 4
Формат : UTF-8
Идентификатор кодека : S_TEXT/UTF8
Идентификатор кодека/Информация : UTF-8 Plain Text
Заголовок : Rus full
Язык : Russian
Default : Нет
Forced : Нет
Текст #2
Идентификатор : 5
Формат : UTF-8
Идентификатор кодека : S_TEXT/UTF8
Идентификатор кодека/Информация : UTF-8 Plain Text
Заголовок : Eng full
Язык : English
Default : Нет
Forced : Нет
Меню
00:00:00.000 : :Chapter 01
00:04:05.119 : :Chapter 02
00:05:59.817 : :Chapter 03
00:09:08.798 : :Chapter 04
00:11:55.839 : :Chapter 05
00:17:32.676 : :Chapter 06
00:23:21.191 : :Chapter 07
00:27:36.029 : :Chapter 08
00:33:10.238 : :Chapter 09
00:37:06.681 : :Chapter 10
00:41:30.987 : :Chapter 11
00:45:47.369 : :Chapter 12
00:51:57.781 : :Chapter 13
00:56:01.775 : :Chapter 14
01:00:56.319 : :Chapter 15
01:03:50.535 : :Chapter 16
01:07:29.253 : :Chapter 17
01:11:19.191 : :Chapter 18
01:15:32.819 : :Chapter 19
01:20:15.060 : :Chapter 20
01:27:47.470 : :Chapter 21
01:30:17.286 : :Chapter 22
01:34:04.013 : :Chapter 23
01:38:29.904 : :Chapter 24
01:40:52.546 : :Chapter 25
01:44:13.121 : :Chapter 26
01:51:51.871 : :Chapter 27
01:56:51.212 : :Chapter 28
02:01:02.713 : :Chapter 29
02:04:05.146 : :Chapter 30

Релиз подготовлен 60 - fps

[Цитировать]
sergei

Спасибо .

[Цитировать]
dadebay

Такое чувство как будто Админ получил моё сообщение. Спасибо большое.

[Цитировать]
Kryl

Пожалуйста .

[Цитировать]
Тимур Артыков

Спасибо!

[Цитировать]
dzubakr

720р, 10.0 Мбит/сек - тебе цены нет!

[Цитировать]
ENIGMA

Весьма Благодарен!)
Кто знает, возможно ли когда нибудь увидеть в 60 fps "Властелин Колец"?И, желательно бы Реж.версию))

[Цитировать]
flamel79

СПАСИБО!!!
 
Показать сообщения:    

Текущее время: 08-Дек 19:07

Часовой пояс: UTC + 3


Вы не можете начинать темы
Вы не можете отвечать на сообщения
Вы не можете редактировать свои сообщения
Вы не можете удалять свои сообщения
Вы не можете голосовать в опросах
Вы не можете прикреплять файлы к сообщениям
Вы не можете скачивать файлы