[Цитировать]
Kryl

«Лабиринт был всего лишь началом»- Информация
Название: Бегущий в лабиринте: Испытание огнём
Оригинальное название: Maze Runner: The Scorch Trials
Год выхода: 2015
Жанр: Фантастика, боевик, триллер
Режиссер: Уэс Болл
Сценарий: Т.С. Наулин, Джеймс Дашнер
Продюсер: Марти Бауэн, Вик Годфри, Эллен Голдсмит-Вейн
В ролях: Дилан О’Брайен, Кая Скоделарио, Ки Хонг Ли, Томас Сэнгстер, Декстер Дарден, Алекс Дж. Флорес, Джейкоб Лофленд, Роза Салазар, Джанкарло Эспозито, Патришия Кларксон
--Сюжет:
Лабиринт пройден, но Томасу, Терезе, Минхо и прочим глэйдерам не приходится расслабляться. Таинственное руководство ПОРОКА — секретной организации, устроившей гонки на выживание — назначает ребятам новые, смертельно опасные испытания. На сей раз их ждет переход по раскаленной пустыне и встреча с жертвами неизлечимой болезни, которые отличаются буйным нравом и непредсказуемым поведением.- - Страна: США
Продолжительность: 02:11:42

Файл
Кодек: MPEG4/ISO/AVC H.264
Формат: MKV
Качество: BDRip-AVC | 60 fps
Видео: 1056x440 (2.40:1) | 59.940 fps | 3.0 Мбит/сек
Аудио 1: AC3 | 5.1 | 48 kHz | 448 kbps | 16 bit | Дубляж |
Аудио 2: AC3 | 5.1 | 48 kHz | 448 kbps | 16 bit | ENG |
Субтитры: русские (Forced), русские (Full), английские (Full)

MedifInfo

Video
ID : 1
Format : AVC
Format/Info : Advanced Video Codec
Format profile : High@L4.1
Format settings, CABAC : Yes
Format settings, ReFrames : 12 frames
Codec ID : V_MPEG4/ISO/AVC
Duration : 2h 11mn
Bit rate : 3 082 Kbps
Width : 1 056 pixels
Height : 440 pixels
Display aspect ratio : 2.40:1
Frame rate : 59.940 fps
Color space : YUV
Chroma subsampling : 4:2:0
Bit depth : 8 bits
Scan type : Progressive
Bits/(Pixel*Frame) : 0.111
Stream size : 2.77 GiB (76%)
Writing library : x264 core 146 r2538 121396c
Encoding settings : cabac=1 / ref=12 / deblock=1:0:0 / analyse=0x3:0x113 / me=umh / subme=11 / psy=1 / psy_rd=1.00:0.20 / mixed_ref=1 / me_range=24 / chroma_me=1 / trellis=2 / 8x8dct=1 / cqm=0 / deadzone=21,11 / fast_pskip=0 / chroma_qp_offset=-3 / threads=6 / lookahead_threads=2 / sliced_threads=0 / nr=0 / decimate=1 / interlaced=0 / bluray_compat=0 / constrained_intra=0 / bframes=9 / b_pyramid=2 / b_adapt=2 / b_bias=0 / direct=3 / weightb=1 / open_gop=0 / weightp=2 / keyint=250 / keyint_min=25 / scenecut=40 / intra_refresh=0 / rc=2pass / mbtree=0 / bitrate=3082 / ratetol=1.0 / qcomp=0.60 / qpmin=0 / qpmax=69 / qpstep=4 / cplxblur=20.0 / qblur=0.5 / ip_ratio=1.40 / pb_ratio=1.30 / aq=1:1.00
Language : English
Default : Yes
Forced : No
DURATION : 02:11:42.829000000
NUMBER_OF_FRAMES : 473696
NUMBER_OF_BYTES : 3045378777
_STATISTICS_WRITING_APP : mkvmerge v8.6.1 ('Flying') 64bit
_STATISTICS_WRITING_DATE_UTC : 2015-12-04 15:39:53
_STATISTICS_TAGS : BPS DURATION NUMBER_OF_FRAMES NUMBER_OF_BYTES
Audio #1
ID : 2
Format : AC-3
Format/Info : Audio Coding 3
Mode extension : CM (complete main)
Codec ID : A_AC3
Duration : 2h 11mn
Bit rate mode : Constant
Bit rate : 448 Kbps
Channel(s) : 6 channels
Channel positions : Front: L C R, Side: L R, LFE
Sampling rate : 48.0 KHz
Bit depth : 16 bits
Compression mode : Lossy
Stream size : 422 MiB (11%)
Title : Дубляж
Language : Russian
Default : Yes
Forced : No
Audio #2
ID : 3
Format : AC-3
Format/Info : Audio Coding 3
Mode extension : CM (complete main)
Codec ID : A_AC3
Duration : 2h 11mn
Bit rate mode : Constant
Bit rate : 448 Kbps
Channel(s) : 6 channels
Channel positions : Front: L C R, Side: L R, LFE
Sampling rate : 48.0 KHz
Bit depth : 16 bits
Compression mode : Lossy
Stream size : 422 MiB (11%)
Title : Оригинал
Language : English
Default : No
Forced : No
Text #1
ID : 4
Format : UTF-8
Codec ID : S_TEXT/UTF8
Codec ID/Info : UTF-8 Plain Text
Title : Forced
Language : Russian
Default : Yes
Forced : No
Text #2
ID : 5
Format : UTF-8
Codec ID : S_TEXT/UTF8
Codec ID/Info : UTF-8 Plain Text
Title : Full
Language : Russian
Default : No
Forced : No
Text #3
ID : 6
Format : UTF-8
Codec ID : S_TEXT/UTF8
Codec ID/Info : UTF-8 Plain Text
Title : Full
Language : English
Default : No
Forced : No
Menu
00:00:00.000 : :(01)00:00:00:000
00:04:05.119 : :(02)00:04:05:119
00:05:59.817 : :(03)00:05:59:817
00:09:08.798 : :(04)00:09:08:798
00:11:55.840 : :(05)00:11:55:840
00:17:32.675 : :(06)00:17:32:676
00:23:21.191 : :(07)00:23:21:191
00:27:36.029 : :(08)00:27:36:029
00:33:10.238 : :(09)00:33:10:238
00:37:06.682 : :(10)00:37:06:682
00:41:30.988 : :(11)00:41:30:988
00:45:47.369 : :(12)00:45:47:369
00:51:57.781 : :(13)00:51:57:781
00:56:01.775 : :(14)00:56:01:775
01:00:56.319 : :(15)01:00:56:319
01:03:50.535 : :(16)01:03:50:535
01:07:29.253 : :(17)01:07:29:253
01:11:19.191 : :(18)01:11:19:191
01:15:32.819 : :(19)01:15:32:819
01:20:15.060 : :(20)01:20:15:060
01:27:47.470 : :(21)01:27:47:470
01:30:17.286 : :(22)01:30:17:286
01:34:04.013 : :(23)01:34:04:013
01:38:29.904 : :(24)01:38:29:904
01:40:52.546 : :(25)01:40:52:546
01:44:13.121 : :(26)01:44:13:121
01:51:51.871 : :(27)01:51:51:871
01:56:51.212 : :(28)01:56:51:212
02:01:02.713 : :(29)02:01:02:713
02:04:05.146 : :(30)02:04:05:146
 
Показать сообщения:    

Текущее время: 07-Дек 19:26

Часовой пояс: UTC + 3


Вы не можете начинать темы
Вы не можете отвечать на сообщения
Вы не можете редактировать свои сообщения
Вы не можете удалять свои сообщения
Вы не можете голосовать в опросах
Вы не можете прикреплять файлы к сообщениям
Вы не можете скачивать файлы