Статистика раздачи
Размер:  14,98 GB   |    Зарегистрирован:  7 дней   |    Скачан:  46 раз
Сидов:  14  [  3 MB/s  ]   Личеров:  4  [  109 KB/s  ]   Подробная статистика пиров
   
Стражи Галактики. Часть 2 / Guardians of the Galaxy Vol. 2 (2017) BDRip 1080p | 60 fps Призрак в доспехах / Ghost in the Shell (2017) BDRip 1080p | 60 fps Пираты Карибского моря: Мертвецы не рассказывают сказки / Pirates of the Caribbean: Dead Men Tell No Tales (2017) BDRip 1080p | 60 fps Джон Уик 2 / John Wick: Chapter Two (2017) BDRip 720p | 60 fps Форсаж 8 / The Fate of the Furious (2017) BDRip 1080p | 60 fps Меч короля Артура / King Arthur: Legend of the Sword (2017) BDRip 1080p | 60 fps Чудо-женщина / Wonder Woman (2017) BDRip 1080p | 60 fps Чужой: Завет / Alien: Covenant (2016) BDRip 720p | 60 fps Человек-паук: Возвращение домой / Spider-Man: Homecoming (2017) BDRip 1080p | 60 fps Доктор Стрэндж / Doctor Strange (2016) BDRip 1080p | 60 fps Варкрафт / Warcraft (2016) BDRip 1080p | 60 fps Тёмная башня / The Dark Tower (2017) BDRip 720p | 60 fps
  1. Стаж:
    3 года 4 месяца
    Сообщений:
    2194
    Пол:
    Мужской
     
    Бегущий по лезвию 2049 / Blade Runner 2049 Информация
    Название: Бегущий по лезвию 2049
    Оригинальное название: Blade Runner 2049
    Год выхода: 2017
    Жанр: Фантастика, триллер
    Режиссер: Дени Вильнёв
    Сценарий: Хэмптон Фанчер, Майкл Грин, Филип К. Дик
    Продюсер: Йель Бадик, Дэна Белкастро, Билл Карраро
    В ролях: Райан Гослинг, Харрисон Форд, Ана де Армас, Сильвия Хукс, Робин Райт, Маккензи Дэвис, Карла Юри, Ленни Джеймс, Дэйв Батиста, Джаред Лето

    Сюжет:
    В недалеком будущем мир населен людьми и репликантами, созданными выполнять самую тяжелую работу. Работа офицера полиции Кей — держать репликантов под контролем в условиях нарастающего напряжения… Пока он случайно не становится обладателем секретной информации, которая ставит под угрозу существование всего человечества. Желая найти ключ к разгадке, Кей решает разыскать Рика Декарда, бывшего офицера специального подразделения полиции Лос-Анджелеса, который бесследно исчез много лет назад.

    Страна: США, Великобритания, Венгрия, Канада
    Продолжительность: 02:43:47

    Файл
    Кодек: H.264
    Формат: MKV
    Качество: BDRip 720p | 60 fps
    Видео: 1280 x 532 (2.406) | 59.940 fps | 12.0 Мбит/сек
    Аудио 01: AC3 | 5.1 | 48 kHz | 640 kbps | 16 bit | Дубляж - Лицензия |
    Аудио 02: AC3 | 5.1 | 48 kHz | 640 kbps | 16 bit | English |
    Субтитры: Русские (forced, full), английские

    MedifInfo

    Видео
    Идентификатор : 1
    Формат : AVC
    Формат/Информация : Advanced Video Codec
    Профиль формата : High@L4.1
    Параметр CABAC формата : Да
    Параметр ReFrames формата : 3 кадра
    Идентификатор кодека : V_MPEG4/ISO/AVC
    Продолжительность : 2 ч. 43 м.
    Вид битрейта : Переменный
    Битрейт : 11,6 Мбит/сек
    Максимальный битрейт : 12,0 Мбит/сек
    Ширина : 1280 пикселей
    Высота : 532 пикселя
    Соотношение сторон : 2,40:1
    Режим частоты кадров : Постоянный
    Частота кадров : 59,880 кадров/сек
    Частота кадров в оригинале : 59,940 кадров/сек
    Стандарт вещания : PAL
    Цветовое пространство : YUV
    Субдискретизация насыщенности : 4:2:0
    Битовая глубина : 8 бит
    Тип развёртки : Прогрессивная
    Бит/(Пиксели*Кадры) : 0.283
    Размер потока : 13,2 Гбайт (88%)
    Заголовок : www.60-fps.org
    Язык : English
    Default : Да
    Forced : Нет
    Основные цвета : BT.601 NTSC
    Характеристики трансфера : BT.601
    Коэффициенты матрицы : BT.601
    colour_range : Limited
    Аудио #1
    Идентификатор : 2
    Формат : AC-3
    Формат/Информация : Audio Coding 3
    Расширение режима : CM (complete main)
    Параметр Endianness формата : Big
    Идентификатор кодека : A_AC3
    Продолжительность : 2 ч. 43 м.
    Вид битрейта : Постоянный
    Битрейт : 640 Кбит/сек
    Каналы : 6 каналов
    Расположение каналов : Front: L C R, Side: L R, LFE
    Частота : 48,0 КГц
    Битовая глубина : 16 бит
    Метод сжатия : С потерями
    Размер потока : 750 Мбайт (5%)
    Заголовок : Дубляж - Лицензия
    Язык : Russian
    Default : Да
    Forced : Нет
    Аудио #2
    Идентификатор : 3
    Формат : AC-3
    Формат/Информация : Audio Coding 3
    Расширение режима : CM (complete main)
    Параметр Endianness формата : Big
    Идентификатор кодека : A_AC3
    Продолжительность : 2 ч. 43 м.
    Вид битрейта : Постоянный
    Битрейт : 640 Кбит/сек
    Каналы : 6 каналов
    Расположение каналов : Front: L C R, Side: L R, LFE
    Частота : 48,0 КГц
    Битовая глубина : 16 бит
    Метод сжатия : С потерями
    Размер потока : 750 Мбайт (5%)
    Заголовок : English
    Язык : English
    Default : Нет
    Forced : Нет
    Текст #1
    Идентификатор : 4
    Формат : UTF-8
    Идентификатор кодека : S_TEXT/UTF8
    Идентификатор кодека/Информация : UTF-8 Plain Text
    Заголовок : Forced
    Язык : Russian
    Default : Да
    Forced : Нет
    Текст #2
    Идентификатор : 5
    Формат : UTF-8
    Идентификатор кодека : S_TEXT/UTF8
    Идентификатор кодека/Информация : UTF-8 Plain Text
    Заголовок : Full
    Язык : Russian
    Default : Нет
    Forced : Нет
    Текст #3
    Идентификатор : 6
    Формат : UTF-8
    Идентификатор кодека : S_TEXT/UTF8
    Идентификатор кодека/Информация : UTF-8 Plain Text
    Заголовок : Full
    Язык : English
    Default : Нет
    Forced : Нет
    Меню
    00:00:00.000 : en:00:00:00.000
    00:12:36.172 : en:00:12:36.172
    00:23:29.283 : en:00:23:29.283
    00:37:00.885 : en:00:37:00.885
    00:42:50.318 : en:00:42:50.318
    00:49:24.503 : en:00:49:24.503
    00:58:35.554 : en:00:58:35.554
    01:04:10.680 : en:01:04:10.680
    01:15:47.293 : en:01:15:47.293
    01:25:12.482 : en:01:25:12.482
    01:36:15.061 : en:01:36:15.061
    01:50:55.107 : en:01:50:55.107
    02:01:36.873 : en:02:01:36.873
    02:08:40.379 : en:02:08:40.379
    02:16:42.486 : en:02:16:42.486
    02:27:46.733 : en:02:27:46.733

    Релиз подготовлен 60 - fps

    [60-fps.org].t3001.torrent
    Торрент: Зарегистрирован 2018-02-12 15:48
    HASH: 4199D46C6C2A747A0536B30B83E0E613523C2D44
    Статус: проверено
    Скачан: 46 раз
    Сидов: 14 [3 MB/s]
    Личеров: 4 [109 KB/s]
    Оценка:
    (Голосов: 1)
    Поблагодарили: 10  Спасибо   (список)
    Похожие Темы
  2. Стаж:
    2 года 6 месяцев
    Сообщений:
    148
    Пол:
    Мужской
     
    Большое Спасибо :)
    12-Фев-2018 16:14 (спустя 1 месяц 6 дней)
  3. Стаж:
    1 месяц 7 дней
    Сообщений:
    1
    Пол:
    Не указан
     
    Сообщение появиться после проверки модератором
    12-Фев-2018 19:20 (спустя 3 часа)


Вы не можете начинать темы
Вы не можете отвечать на сообщения
Вы не можете редактировать свои сообщения
Вы не можете удалять свои сообщения
Вы не можете голосовать в опросах
Вы не можете прикреплять файлы к сообщениям
Вы можете скачивать файлы