[Цитировать]
Kryl

BBC: Мир с высоты птичьего полета / Earthflight (2011) BDRip 1080p | 60 FPS-- Информация о фильме
Название: BBC: Мир с высоты птичьего полета
Оригинальное название: Earthflight
Год выхода: 2011
Жанр: Документальный
Режиссер: John Downer
--О фильме:
Документальный сериал о том, какой предстаёт нашему взору Земля с высоты птичьего полёта, глазами самих птиц, в грандиозном природном калейдоскопе. Потрясающие виды пяти континентов, поданные в новом ракурсе в этом шести серийном фильме, благодаря которому можно присоединиться к стае лапландских гусей, журавлей, фламинго, пеликанов, орлов и прочей птичьей братии. Для создания фильма были использованы последние технологии воздушных съёмок, чтобы мы смогли в мельчайших деталях увидеть всю мощь природы.- -
Страна: Великобритания
Продолжительность: 6 серий х 01:00:00
Перевод:
Профессиональный (одноголосый) (Ю.Сербин)
Список серий:
1. North America / Северная Америка
2. Africa / Африка
3. Europe / Европа
4. South America / Южная Америка
5. Asia & Australia / Азия и Австралия
6. Flying High / Летая высоко--Файл
Кодек: MPEG4/ISO/AVC H.264
Формат: MKV
Качество: BDRip
Видео: 1920 x 1080 (1.778) at 60.000 fps / Matroska at 25 Мбит/сек-Аудио 01: DTS | 768 Кбит/сек | 2 канала | 48,0 КГц Ю.Сербин
Аудио 02: DTS | 755 Кбит/сек | 2 канала | 48,0 КГц eng
--

MI

Видео
Идентификатор : 1
Формат : AVC
Формат/Информация : Advanced Video Codec
Профиль формата : High@L4.1
Параметр CABAC формата : Да
Параметр ReFrames формата : 4 кадра
Идентификатор кодека : V_MPEG4/ISO/AVC
Продолжительность : 59 м.
Битрейт : 25,0 Мбит/сек
Ширина : 1920 пикселей
Высота : 1080 пикселей
Соотношение сторон : 16:9
Режим частоты кадров : Постоянный
Частота кадров : 60,000 кадров/сек
Цветовое пространство : YUV
Субдискретизация насыщенности : 4:2:0
Битовая глубина : 8 бит
Тип развёртки : Прогрессивная
Бит/(Пиксели*Кадры) : 0.201
Размер потока : 10,1 Гбайт (92%)
Заголовок : www.60-fps.org
Библиотека кодирования : x264 core 129 r2245 bc13772
Настройки программы : cabac=1 / ref=4 / deblock=1:-1:-1 / analyse=0x3:0x133 / me=esa / subme=10 / psy=1 / psy_rd=1.00:0.15 / mixed_ref=1 / me_range=32 / chroma_me=1 / trellis=2 / 8x8dct=1 / cqm=0 / deadzone=21,11 / fast_pskip=1 / chroma_qp_offset=-3 / threads=12 / lookahead_threads=2 / sliced_threads=0 / nr=0 / decimate=1 / interlaced=0 / bluray_compat=0 / constrained_intra=0 / bframes=3 / b_pyramid=2 / b_adapt=2 / b_bias=0 / direct=3 / weightb=1 / open_gop=0 / weightp=2 / keyint=600 / keyint_min=60 / scenecut=40 / intra_refresh=0 / rc_lookahead=60 / rc=2pass / mbtree=1 / bitrate=24999 / ratetol=1.0 / qcomp=0.60 / qpmin=0 / qpmax=69 / qpstep=4 / cplxblur=19.0 / qblur=0.0 / ip_ratio=1.40 / aq=1:1.00
Язык : English
Default : Нет
Forced : Нет
Аудио #1
Идентификатор : 2
Формат : DTS
Формат/Информация : Digital Theater Systems
Режим : 16
Параметр Endianness формата : Big
Идентификатор кодека : A_DTS
Продолжительность : 59 м.
Вид битрейта : Постоянный
Битрейт : 768 Кбит/сек
Каналы : 2 канала
Расположение каналов : Front: L R
Частота : 48,0 КГц
Битовая глубина : 24 бит
Метод сжатия : С потерями
Задержка видео : 11 мс.
Размер потока : 325 Мбайт (3%)
Заголовок : www.60-fps.org
Язык : Russian
Default : Нет
Forced : Нет
Аудио #2
Идентификатор : 3
Формат : DTS
Формат/Информация : Digital Theater Systems
Режим : 16
Параметр Endianness формата : Big
Идентификатор кодека : A_DTS
Продолжительность : 59 м.
Вид битрейта : Постоянный
Битрейт : 755 Кбит/сек
Каналы : 2 канала
Расположение каналов : Front: L R
Частота : 48,0 КГц
Битовая глубина : 24 бит
Метод сжатия : С потерями
Задержка видео : 11 мс.
Размер потока : 320 Мбайт (3%)
Заголовок : www.60-fps.org
Язык : English
Default : Нет
Forced : Нет
5 серий из 6..

Скриншоты

North America / Северная Америка-Africa / Африка-Europe / ЕвропаSouth America / Южная АмерикаAsia & Australia / Азия и Австралия


Последний раз редактировалось: Kryl (2015-01-14 13:27), всего редактировалось 5 раз(а)

[Цитировать]
Владимир 1965

Круто Спасибо

[Цитировать]
Kryl

Пожалуйста ...

[Цитировать]
Владимир 1965

Вот и 4 часть. Качаем, говорим спасибо.

[Цитировать]
gosser

Дайте скорости!!!

[Цитировать]
Ikran

Кто ни будь встаньте на раздачу пожалуйста.

[Цитировать]
seiblokhin

До 63,2% скачалось и уже 3 день не двигается.

[Цитировать]
seiblokhin

мертвый торент

[Цитировать]
Ikran

3940мертвый торент
У меня уже месяца два висит и никак не докачается но всё же надеюсь кто ни будь встанет на раздачу

[Цитировать]
Kryl

У меня файлов нет . удалил . HDD не резиновый .

[Цитировать]
seiblokhin

Ну кто то же раздал 63%
 
Показать сообщения:    

Текущее время: 07-Дек 19:24

Часовой пояс: UTC + 3


Вы не можете начинать темы
Вы не можете отвечать на сообщения
Вы не можете редактировать свои сообщения
Вы не можете удалять свои сообщения
Вы не можете голосовать в опросах
Вы не можете прикреплять файлы к сообщениям
Вы не можете скачивать файлы