[Цитировать]
mimok

Байки из склепа: Демон ночи / Tales from the Crypt: Demon Knight (1995) BDRip 720p | 60fps«Ready for your deadtime story?»- Информация о фильме
Название: Байки из склепа: Демон ночи
Оригинальное название: Tales from the Crypt: Demon Knight
Год выхода: 1995
Жанр: Ужасы, фэнтези, триллер, комедия
Режиссер: Эрнест Р. Дикерсон
Продюсер: Гилберт Адлер, Александр Б. Коллетт, Дэн Краччиоло
В ролях: Джон Кассир, Билли Зейн, Уильям Сэдлер, Джада Пинкетт Смит, Бренда Бакки, Си Си Эйч Паундер, Дик Миллер, Томас Хейден Чёрч, Джон Шак, Гэри Фармер
Описание фильма:
Два «человека», живущих уже не первую сотню лет, приезжают в маленький городок. Один из них, повелитель демонов, может понаделать их целую кучу из своей крови. А второй пытается его победить при помощи крови разбойника Варраввы, распятого рядом с Христом. Содержалась эта кровь в седьмом ключе, необходимом Нечистому для окончательного овладения миром. Участниками этой насыщенной кошмарами борьбы оказались несколько обычных граждан, о чем они вскоре очень пожалели…
Страна: США
Студия: Universal Pictures
Продолжительность: 01:32:22
Перевод: Профессиональный многоголосый, Авторский одноголосый
Субтитры: Отсутствуют

Дата мировой премьеры: 13 января 1995
Дата выхода DVD релиза: 6 августа 2009, «Настроение Video»
Файл
Формат: MKV
Кодек: MPEG-4 AVC/H.264
Качество: BDRip 720p
Видео: ~ 6962 Кбит/сек, 1280 x 720, 59.940 кадров/сек
Аудио#1: AC3 5.1, 48.0 KHz, 448 Кбит/сек - Русский (MVO R5)
Аудио#2: AC3 5.1, 48.0 KHz, 448 Кбит/сек - Русский (VO А. Гаврилов)
Аудио#3: AC3 2.0, 48.0 KHz, 192 Кбит/сек - Русский (MVO "Премьер-видео") Отдельно
Аудио#4: AC3 2.0, 48.0 KHz, 192 Кбит/сек - Русский (MVO ТК "СТС") Отдельно
Аудио#5: AC3 2.0, 48.0 KHz, 192 Кбит/сек - Русский (MVO ТК "ТВ-3") Отдельно

MediaInfo

Общее
Уникальный идентификатор : 243555784530512547356399592082832680442 (0xB73B234A813E973FBD4C541D9F3CE5FA)
Полное имя : D:\Торренты\Tales from the Crypt. Demon Knight 60fps.mkv
Формат : Matroska
Версия формата : Version 2
Размер файла : 5,17 Гбайт
Продолжительность : 1 ч. 32 м.
Общий поток : 8018 Кбит/сек
Название фильма : Tales from the Crypt: Demon Knight (1995) Blu-ray
Дата кодирования : UTC 2015-05-03 17:39:07
Программа кодирования : mkvmerge v6.9.1 ('Blue Panther') 64bit built on Apr 18 2014 18:23:38
Библиотека кодирования : libebml v1.3.0 + libmatroska v1.4.1
Видео
Идентификатор : 1
Формат : AVC
Формат/Информация : Advanced Video Codec
Профиль формата : High@L4.1
Параметр CABAC формата : Да
Параметр ReFrames формата : 6 кадров
Идентификатор кодека : V_MPEG4/ISO/AVC
Продолжительность : 1 ч. 32 м.
Битрейт : 6962 Кбит/сек
Ширина : 1280 пикселей
Высота : 720 пикселей
Соотношение сторон : 16:9
Режим частоты кадров : Постоянный
Частота кадров : 59,880 кадров/сек
Частота кадров в оригинале : 59,940 кадров/сек
Цветовое пространство : YUV
Субдискретизация насыщенности : 4:2:0
Битовая глубина : 8 бит
Тип развёртки : Прогрессивная
Бит/(Пиксели*Кадры) : 0.126
Размер потока : 4,49 Гбайт (87%)
Заголовок : Release by mimok
Библиотека кодирования : x264 core 130 r2273 b3065e6
Настройки программы : cabac=1 / ref=6 / deblock=1:0:0 / analyse=0x3:0x133 / me=umh / subme=8 / psy=1 / psy_rd=1.00:0.15 / mixed_ref=1 / me_range=20 / chroma_me=1 / trellis=2 / 8x8dct=1 / cqm=0 / deadzone=21,11 / fast_pskip=0 / chroma_qp_offset=-3 / threads=6 / lookahead_threads=2 / sliced_threads=0 / nr=0 / decimate=0 / interlaced=0 / bluray_compat=0 / constrained_intra=0 / bframes=8 / b_pyramid=2 / b_adapt=2 / b_bias=0 / direct=1 / weightb=1 / open_gop=0 / weightp=2 / keyint=250 / keyint_min=25 / scenecut=40 / intra_refresh=0 / rc=crf / mbtree=0 / crf=18.0 / qcomp=0.63 / qpmin=10 / qpmax=51 / qpstep=4 / ip_ratio=1.40 / pb_ratio=1.30 / aq=1:1.20
Default : Да
Forced : Нет
Аудио #1
Идентификатор : 2
Формат : AC-3
Формат/Информация : Audio Coding 3
Расширение режима : CM (complete main)
Параметр Endianness формата : Big
Идентификатор кодека : A_AC3
Продолжительность : 1 ч. 32 м.
Вид битрейта : Постоянный
Битрейт : 448 Кбит/сек
Каналы : 6 каналов
Расположение каналов : Front: L C R, Side: L R, LFE
Частота : 48,0 КГц
Битовая глубина : 16 бит
Метод сжатия : С потерями
Размер потока : 296 Мбайт (6%)
Заголовок : MVO R5
Язык : Russian
Default : Да
Forced : Нет
Аудио #2
Идентификатор : 3
Формат : AC-3
Формат/Информация : Audio Coding 3
Расширение режима : CM (complete main)
Параметр Endianness формата : Big
Идентификатор кодека : A_AC3
Продолжительность : 1 ч. 32 м.
Вид битрейта : Постоянный
Битрейт : 448 Кбит/сек
Каналы : 6 каналов
Расположение каналов : Front: L C R, Side: L R, LFE
Частота : 48,0 КГц
Битовая глубина : 16 бит
Метод сжатия : С потерями
Размер потока : 296 Мбайт (6%)
Заголовок : VO А. Гаврилов
Язык : Russian
Default : Нет
Forced : Нет

Скринлист

Скриншоты:

Релиз подготовлен 60 - fps

[Цитировать]
dadebay

Ух ностальгия Улыбаюсь

[Цитировать]
Медведь

Перезалейте или удалите,тоже не качает Злой
 
Показать сообщения:    

Текущее время: 02-Дек 21:04

Часовой пояс: UTC + 3


Вы не можете начинать темы
Вы не можете отвечать на сообщения
Вы не можете редактировать свои сообщения
Вы не можете удалять свои сообщения
Вы не можете голосовать в опросах
Вы не можете прикреплять файлы к сообщениям
Вы не можете скачивать файлы