Агент Ева / Ava (2020) BDRip 1080p | 60 fps Пятый элемент / The Fifth Element (1997) BDRip 1080p | 60 fps Властелин колец: Трилогия / The Lord of the Rings: Trilogy (2001-2003) BDRip-AVC | Extended Cut | 60 fps Форпост / The Outpost (2020) BDRip 1080p | 60 fps Поезд смерти / D-Railed (2018) BDRip 1080p | 60 fps Вивариум / Vivarium (2019) BDRip 720p | 60 fps Охота / The Hunt (2020) BDRip 1080p | 60 fps Ультрафиолет / Ultraviolet (2006) BDRip 1080p | 60 fps
  1. Longevity:
    6 years 4 months
    Posts:
    2414
    Gender:
    Male
    «Не называй его. Не думай о нем. Не называй его. Не думай о нем. Не называй его. Не думай о нем. Не называй его. Не думай о нем. Не называй его. Не думай о нем. Тот, кто знает его имя, уже в его власти»- Информация
    Название: БайБайМэн
    Оригинальное название: The Bye Bye Man
    Год выхода: 2017
    Жанр: Ужасы, триллер
    Режиссер: Стэйси Тайтл
    Сценарий: Джонатан Пеннер, Роберт Дэймон Шнек
    Продюсер: Орен Авив, Марк Д. Эванс, Адам Фогельсон
    В ролях: Дуглас Смит, Люсьен Лависконт, Крессида Бонас, Даг Джонс, Майкл Трукко, Дженна Кэнелл, Эрика Тремблэй, Мариса Эчеверриа, Клео Кинг, Фэй Данауэй
    --Сюжет:
    Трое студентов колледжа сталкиваются со всемогущим злым духом по прозвищу БайБайМэн. Героям необходимо найти способ спастись от мистического убийцы, о котором нельзя никому рассказывать, ведь он забирает любого, кто знает его имя или думает о нем.- Страна: США
    Продолжительность: 01:39:48

    Файл
    Кодек: MPEG4/ISO/AVC/H.264
    Формат: MKV
    Качество: BDRip 720p | 60 fps
    Видео: 1280 x 690 (1.855) | 59.940 fps | 10.0 Мбит/сек
    Аудио 1: AC3 | 5.1 | 48 kHz | 384 kbps | 16 bit | Дубляж - iTunes |
    Аудио 2: AC3 | 5.1 | 48 kHz | 448 kbps | 16 bit | ENG |
    Субтитры: Английские

    MedifInfo

    Видео
    Идентификатор : 1
    Формат : AVC
    Формат/Информация : Advanced Video Codec
    Профиль формата : [email protected]
    Параметр CABAC формата : Да
    Параметр ReFrames формата : 5 кадров
    Идентификатор кодека : V_MPEG4/ISO/AVC
    Продолжительность : 1 ч. 39 м.
    Битрейт : 9999 Кбит/сек
    Ширина : 1280 пикселей
    Высота : 690 пикселей
    Соотношение сторон : 1,85:1
    Режим частоты кадров : Постоянный
    Частота кадров : 59,880 кадров/сек
    Частота кадров в оригинале : 59,940 кадров/сек
    Цветовое пространство : YUV
    Субдискретизация насыщенности : 4:2:0
    Битовая глубина : 8 бит
    Тип развёртки : Прогрессивная
    Бит/(Пиксели*Кадры) : 0.189
    Размер потока : 6,79 Гбайт (90%)
    Заголовок : www.60-fps.org
    Библиотека кодирования : x264 core 148 r2638 7599210
    Настройки программы : cabac=1 / ref=5 / deblock=1:-3:-3 / analyse=0x3:0x113 / me=umh / subme=8 / psy=1 / psy_rd=1.00:0.25 / mixed_ref=1 / me_range=32 / chroma_me=1 / trellis=1 / 8x8dct=1 / cqm=0 / deadzone=6,6 / fast_pskip=1 / chroma_qp_offset=-4 / threads=12 / lookahead_threads=2 / sliced_threads=0 / nr=0 / decimate=0 / interlaced=0 / bluray_compat=0 / constrained_intra=0 / bframes=3 / b_pyramid=2 / b_adapt=2 / b_bias=0 / direct=3 / weightb=1 / open_gop=0 / weightp=2 / keyint=599 / keyint_min=59 / scenecut=40 / intra_refresh=0 / rc_lookahead=50 / rc=2pass / mbtree=1 / bitrate=9999 / ratetol=1.0 / qcomp=0.80 / qpmin=0 / qpmax=69 / qpstep=4 / cplxblur=20.0 / qblur=0.5 / vbv_maxrate=62500 / vbv_bufsize=78125 / nal_hrd=none / filler=0 / ip_ratio=1.10 / aq=1:0.50
    Default : Да
    Forced : Нет
    Аудио #1
    Идентификатор : 2
    Формат : AC-3
    Формат/Информация : Audio Coding 3
    Расширение режима : CM (complete main)
    Параметр Endianness формата : Big
    Идентификатор кодека : A_AC3
    Продолжительность : 1 ч. 39 м.
    Вид битрейта : Постоянный
    Битрейт : 384 Кбит/сек
    Каналы : 6 каналов
    Расположение каналов : Front: L C R, Side: L R, LFE
    Частота : 48,0 КГц
    Битовая глубина : 16 бит
    Метод сжатия : С потерями
    Размер потока : 274 Мбайт (4%)
    Заголовок : Дубляж - iTunes
    Язык : Russian
    Default : Да
    Forced : Нет
    Аудио #2
    Идентификатор : 3
    Формат : AC-3
    Формат/Информация : Audio Coding 3
    Расширение режима : CM (complete main)
    Параметр Endianness формата : Big
    Идентификатор кодека : A_AC3
    Продолжительность : 1 ч. 39 м.
    Вид битрейта : Постоянный
    Битрейт : 448 Кбит/сек
    Каналы : 6 каналов
    Расположение каналов : Front: L C R, Side: L R, LFE
    Частота : 48,0 КГц
    Битовая глубина : 16 бит
    Метод сжатия : С потерями
    Размер потока : 320 Мбайт (4%)
    Заголовок : eng
    Язык : English
    Default : Нет
    Forced : Нет
    Текст
    Идентификатор : 4
    Формат : UTF-8
    Идентификатор кодека : S_TEXT/UTF8
    Идентификатор кодека/Информация : UTF-8 Plain Text
    Заголовок : Full (Colored)
    Язык : English
    Default : Нет
    Forced : Нет
    Меню
    00:00:00.000 : en:Chapter 01
    00:06:11.621 : en:Chapter 02
    00:11:44.870 : en:Chapter 03
    00:16:33.951 : en:Chapter 04
    00:20:57.506 : en:Chapter 05
    00:26:35.760 : en:Chapter 06
    00:30:00.298 : en:Chapter 07
    00:34:58.179 : en:Chapter 08
    00:39:18.355 : en:Chapter 09
    00:42:49.149 : en:Chapter 10
    00:47:51.827 : en:Chapter 11
    00:52:59.926 : en:Chapter 12
    00:57:53.052 : en:Chapter 13
    01:02:57.398 : en:Chapter 14
    01:07:04.603 : en:Chapter 15
    01:11:01.799 : en:Chapter 16
    01:18:19.611 : en:Chapter 17
    01:22:39.037 : en:Chapter 18
    01:30:45.022 : en:Chapter 19
    01:33:25.016 : en:Chapter 20
    01:39:48.148 : en:Chapter 21

    Release was prepared by 60-fps.org

  2. Longevity:
    4 years 6 months
    Posts:
    1576
    Gender:
    Male
    Обезьяна
    07-May-2017 13:54 (after 6 hours)
  3. Longevity:
    6 years 4 months
    Posts:
    16
    Gender:
    Male
    Спасибо ...
    17-May-2017 19:25 (after 10 days)


You cannot post new topics in this forum
You cannot reply to topics in this forum
You cannot edit your posts in this forum
You cannot delete your posts in this forum
You cannot vote in polls in this forum
You cannot attach files in this forum
You cannot download files in this forum