[Цитировать]
Kryl

«Первый. Женский. Бессмертный»- Информация о фильме
Название: Батальонъ
Год выхода: 2015
Жанр: Драма, военный, исторический
Режиссер: Дмитрий Месхиев
Сценарий: Илья Авраменко, Игорь Угольников, Евгений Айзикович
Продюсер: Игорь Угольников, Фёдор Бондарчук, Дмитрий Рудовский
В ролях: Мария Аронова, Мария Кожевникова, Ирина Рахманова, Марат Башаров, Янина Малинчик, Евгений Дятлов, Яков Шамшин, Алёна Кучкова, Валерия Шкирандо, Николай Аузин, Владимир Зайцев, Екатерина Вилкова, Сергей Тэсслер, Юлия Яновская (II), Дмитрий Шевченко, Артур Ваха
--О фильме:
Весна 1917-го года. Февральская революция изменила жизнь России и ход Великой войны. Государь уже отрёкся от престола. В окопах, где противостояние с немцами длится уже не один год, вовсю ведут свою пропаганду большевики. Они призывают к миру с неприятелем. Российское офицерство фактически ничего не может решить без одобрения так называемых солдатских комитетов. Армия находится на пороге окончательного разложения.
По приказу Временного правительства для поднятия боевого духа создаётся женский «Батальон смерти» под командованием георгиевского кавалера Марии Бочкарёвой. Своей службой «Батальон смерти» подаёт пример храбрости, мужества и спокойствия, поднимает дух солдат и доказывает, что каждая из этих женщин-героев достойна звания воина русской армии.
- - Страна: Россия
Продолжительность: 02:08:54
-- Файл
Кодек: MPEG4/ISO/AVC H.264
Формат: MKV
Качество: BDRip 1080p
Видео: 1920 x 800 (2.400) | 60.000 fps | 24,3 Мбит/сек
Аудио: DTS | 5.1 | 48 kHz | 1510 kbps | 16 bit | Лицензия |

MedifInfo

Видео
Идентификатор : 1
Формат : AVC
Формат/Информация : Advanced Video Codec
Профиль формата : High@L4.2
Параметр CABAC формата : Да
Параметр ReFrames формата : 3 кадра
Параметр GOP формата : M=3, N=60
Идентификатор кодека : V_MPEG4/ISO/AVC
Продолжительность : 2 ч. 8 м.
Вид битрейта : Переменный
Битрейт : 24,3 Мбит/сек
Максимальный битрейт : 25,0 Мбит/сек
Ширина : 1920 пикселей
Высота : 800 пикселей
Соотношение сторон : 2,40:1
Режим частоты кадров : Постоянный
Частота кадров : 60,000 кадров/сек
Стандарт вещания : PAL
Цветовое пространство : YUV
Субдискретизация насыщенности : 4:2:0
Битовая глубина : 8 бит
Тип развёртки : Прогрессивная
Бит/(Пиксели*Кадры) : 0.263
Размер потока : 21,9 Гбайт (92%)
Заголовок : www.60-fps.org
Язык : English
Default : Да
Forced : Нет
Основные цвета : BT.709
Характеристики трансфера : BT.709
Коэффициенты матрицы : BT.709
colour_range : Limited
Аудио
Идентификатор : 2
Формат : DTS
Формат/Информация : Digital Theater Systems
Режим : 16
Параметр Endianness формата : Big
Идентификатор кодека : A_DTS
Продолжительность : 2 ч. 8 м.
Вид битрейта : Постоянный
Битрейт : 1510 Кбит/сек
Каналы : 6 каналов
Расположение каналов : Front: L C R, Side: L R, LFE
Частота : 48,0 КГц
Битовая глубина : 24 бит
Метод сжатия : С потерями
Размер потока : 1,36 Гбайт (6%)
Заголовок : DTS
Default : Да
Forced : Нет
Меню
00:00:00.000 : en:00:00:00.000
00:12:18.875 : en:00:12:18.875
00:21:40.042 : en:00:21:40.042
00:33:42.625 : en:00:33:42.625
00:41:00.250 : en:00:41:00.250
00:55:59.208 : en:00:55:59.208
01:01:24.000 : en:01:01:24.000
01:11:55.417 : en:01:11:55.417
01:23:56.292 : en:01:23:56.292
01:31:40.500 : en:01:31:40.500
01:40:55.167 : en:01:40:55.167
01:52:30.167 : en:01:52:30.167

Релиз подготовлен 60 - fps



Последний раз редактировалось: Kryl (2015-08-29 16:49), всего редактировалось 1 раз
 
Показать сообщения:    

Текущее время: 07-Дек 19:22

Часовой пояс: UTC + 3


Вы не можете начинать темы
Вы не можете отвечать на сообщения
Вы не можете редактировать свои сообщения
Вы не можете удалять свои сообщения
Вы не можете голосовать в опросах
Вы не можете прикреплять файлы к сообщениям
Вы не можете скачивать файлы