[Цитировать]
Kryl

«Подходящее место для безумства»- Информация
Название: Бар «Гадкий койот»
Оригинальное название: Coyote Ugly
Год выхода: 2000
Жанр: комедия, мелодрама, музыка
Режиссер: Дэвид МакНэлли
Сценарий: Джина Вендкос
Продюсер: Джерри Брукхаймер, Чад Оман, Джефф Эмер
В ролях: Пайпер Перабо, Адам Гарсиа, Джон Гудман, Мария Белло, Изабелла Мико, Тайра Бэнкс, Бриджет Мойнэан, Мелани Лински, Дел Пентекост, Майкл Уэстон, ЛиЭнн Раймс, Джереми Роули
--Сюжет:
Вайолет всю жизнь прожила на окраине и мечтала стать певицей. Но ее никогда не покидал страх перед освещенной сценой и шумной толпой. Наконец, мечта привела ее в Нью-Йорк, где Вайолет устроилась на работу официанткой в знаменитый бар «Гадкий Койот», где правят бал только красивые и решительные.
В обществе неотразимых красавиц, чьи манеры пугают ханжей и привлекают мужчин, Вайолет должна преодолеть природную застенчивость и услышать собственный голос.
- Страна: США
Продолжительность: 01:47:30

Файл
Кодек: MPEG4/ISO/AVC H.264
Формат: MKV
Качество: BDRip 720p | 60 fps
Видео: 1280 x 534 (2.397) | 59.940 fps | 8.0 Мбит/сек
Аудио 1: AC3 | 2.0 | 48 kHz | 192 kbps | 16 bit | Дубляж - R5 + вставки на unrated-эпизоды перевода Ю.Живова |
Аудио 2: AC3 | 5.1 | 48 kHz | 640 kbps | 16 bit | Авторский одноголосый - Живов |
Аудио 3: AC3 | 5.1 | 48 kHz | 640 kbps | 16 bit | ENG |
Субтитры: Русские, Eng

MedifInfo

Видео
Идентификатор : 1
Формат : AVC
Формат/Информация : Advanced Video Codec
Профиль формата : High@L4.1
Параметр CABAC формата : Да
Параметр ReFrames формата : 3 кадра
Параметр GOP формата : M=3, N=72
Идентификатор кодека : V_MPEG4/ISO/AVC
Продолжительность : 1 ч. 47 м.
Вид битрейта : Переменный
Битрейт : 7716 Кбит/сек
Максимальный битрейт : 8000 Кбит/сек
Ширина : 1280 пикселей
Высота : 534 пикселя
Соотношение сторон : 2,40:1
Режим частоты кадров : Постоянный
Частота кадров : 59,880 кадров/сек
Частота кадров в оригинале : 59,940 кадров/сек
Стандарт вещания : PAL
Цветовое пространство : YUV
Субдискретизация насыщенности : 4:2:0
Битовая глубина : 8 бит
Тип развёртки : Прогрессивная
Бит/(Пиксели*Кадры) : 0.189
Размер потока : 5,79 Гбайт (82%)
Заголовок : www.60-fps.org
Язык : English
Default : Да
Forced : Нет
Основные цвета : BT.601 NTSC
Характеристики трансфера : BT.601
Коэффициенты матрицы : BT.601
colour_range : Limited
Аудио #1
Идентификатор : 2
Формат : AC-3
Формат/Информация : Audio Coding 3
Расширение режима : CM (complete main)
Параметр Endianness формата : Big
Идентификатор кодека : A_AC3
Продолжительность : 1 ч. 47 м.
Вид битрейта : Постоянный
Битрейт : 192 Кбит/сек
Каналы : 2 канала
Расположение каналов : Front: L R
Частота : 48,0 КГц
Битовая глубина : 16 бит
Метод сжатия : С потерями
Размер потока : 148 Мбайт (2%)
Заголовок : Дубляж - R5
Язык : Russian
Default : Да
Forced : Нет
Аудио #2
Идентификатор : 3
Формат : AC-3
Формат/Информация : Audio Coding 3
Расширение режима : CM (complete main)
Параметр Endianness формата : Big
Идентификатор кодека : A_AC3
Продолжительность : 1 ч. 47 м.
Вид битрейта : Постоянный
Битрейт : 640 Кбит/сек
Каналы : 6 каналов
Расположение каналов : Front: L C R, Side: L R, LFE
Частота : 48,0 КГц
Битовая глубина : 16 бит
Метод сжатия : С потерями
Размер потока : 492 Мбайт (7%)
Заголовок : Авторский одноголосый - Живов
Язык : Russian
Default : Нет
Forced : Нет
Аудио #3
Идентификатор : 4
Формат : AC-3
Формат/Информация : Audio Coding 3
Расширение режима : CM (complete main)
Параметр Endianness формата : Big
Идентификатор кодека : A_AC3
Продолжительность : 1 ч. 47 м.
Вид битрейта : Постоянный
Битрейт : 640 Кбит/сек
Каналы : 6 каналов
Расположение каналов : Front: L C R, Side: L R, LFE
Частота : 48,0 КГц
Битовая глубина : 16 бит
Метод сжатия : С потерями
Размер потока : 492 Мбайт (7%)
Заголовок : Eng
Язык : English
Default : Нет
Forced : Нет
Текст #1
Идентификатор : 5
Формат : UTF-8
Идентификатор кодека : S_TEXT/UTF8
Идентификатор кодека/Информация : UTF-8 Plain Text
Язык : Russian
Default : Нет
Forced : Нет
Текст #2
Идентификатор : 6
Формат : UTF-8
Идентификатор кодека : S_TEXT/UTF8
Идентификатор кодека/Информация : UTF-8 Plain Text
Язык : English
Default : Нет
Forced : Нет
Меню
00:00:00.000 : en:00:00:00.000
00:09:18.848 : en:00:09:18.848
00:18:09.922 : en:00:18:09.922
00:23:01.296 : en:00:23:01.296
00:33:24.919 : en:00:33:24.919
00:37:08.184 : en:00:37:08.184
00:38:54.415 : en:00:38:54.415
00:42:53.487 : en:00:42:53.487
00:50:03.583 : en:00:50:03.583
00:56:15.830 : en:00:56:15.830
01:03:57.792 : en:01:03:57.792
01:07:06.981 : en:01:07:06.981
01:18:42.216 : en:01:18:42.216
01:20:50.887 : en:01:20:50.887
01:21:05.360 : en:01:21:05.360
01:23:14.698 : en:01:23:14.698
01:29:54.972 : en:01:29:54.972
01:35:01.362 : en:01:35:01.362
01:38:27.693 : en:01:38:27.693
01:42:03.534 : en:01:42:03.534
Киношка сделана по заказу пользователя
вячеслав

Релиз подготовлен 60 - fps

 
Показать сообщения:    

Текущее время: 06-Дек 15:07

Часовой пояс: UTC + 3


Вы не можете начинать темы
Вы не можете отвечать на сообщения
Вы не можете редактировать свои сообщения
Вы не можете удалять свои сообщения
Вы не можете голосовать в опросах
Вы не можете прикреплять файлы к сообщениям
Вы не можете скачивать файлы