1. Longevity:
    7 years
    Posts:
    2413
    Gender:
    Male
    «Never give up on your dreams»- Информация
    Название: Балерина
    Оригинальное название: Ballerina
    Год выхода: 2016
    Жанр: Мультфильм, мюзикл, приключения, семейный, полнометражный
    Режиссер: Эрик Саммер, Эрик Уорин
    Сценарий: Эрик Саммер, Лорен Зэйтун, Кэрол Ноубл
    Продюсер: Валери д’Отей, Николя Дюваль-Адассовски, Андре Руле
    Персонажей озвучивали: Эль Фаннинг, Карли Рэй Джепсен, Мэдди Зиглер, Терренс Скаммелл, Tamir Kapelian, Джули Ханер, Джо Шеридан, Элана Дункельман, Шошана Спелинг, Джэми Уотсон
    --Сюжет:
    Сказочно красивый Париж 1884 года. Обычная девочка из сиротского приюта мечтает только об одном — стать знаменитой балериной. Впереди ее ждет самое волшебное приключение всей ее жизни. И ничто не сможет встать у нее на пути
    - Страна: Франция, Канада
    Продолжительность: 01:29:23

    Файл
    Кодек: MPEG4/ISO/AVC/H.264
    Формат: MKV
    Качество: BDRip 720p | 60 fps
    Видео: 1280 x 536 (2.388) | 60.000 fps | 10.0 Мбит/сек
    Аудио 1: AC3 | 5.1 | 48 kHz | 384 kbps | 16 bit | Дубляж - iTunes |
    Аудио 2: AC3 | 5.1 | 48 kHz | 384 kbps | 16 bit | Дубляж - iTunes |
    Аудио 3: AC3 | 5.1 | 48 kHz | 448 kbps | 16 bit | French |

    MedifInfo

    Видео
    Идентификатор : 1
    Формат : AVC
    Формат/Информация : Advanced Video Codec
    Профиль формата : [email protected]
    Параметр CABAC формата : Да
    Параметр ReFrames формата : 3 кадра
    Идентификатор кодека : V_MPEG4/ISO/AVC
    Продолжительность : 1 ч. 29 м.
    Вид битрейта : Переменный
    Битрейт : 9687 Кбит/сек
    Максимальный битрейт : 10000 Кбит/сек
    Ширина : 1280 пикселей
    Высота : 536 пикселей
    Соотношение сторон : 2,40:1
    Режим частоты кадров : Постоянный
    Частота кадров : 60,000 кадров/сек
    Стандарт вещания : PAL
    Цветовое пространство : YUV
    Субдискретизация насыщенности : 4:2:0
    Битовая глубина : 8 бит
    Тип развёртки : Прогрессивная
    Бит/(Пиксели*Кадры) : 0.235
    Размер потока : 6,09 Гбайт (87%)
    Заголовок : www.60-fps.org
    Язык : English
    Default : Да
    Forced : Нет
    Основные цвета : BT.601 NTSC
    Характеристики трансфера : BT.601
    Коэффициенты матрицы : BT.601
    colour_range : Limited
    Аудио #1
    Идентификатор : 2
    Формат : AC-3
    Формат/Информация : Audio Coding 3
    Расширение режима : CM (complete main)
    Параметр Endianness формата : Big
    Идентификатор кодека : A_AC3
    Продолжительность : 1 ч. 29 м.
    Вид битрейта : Постоянный
    Битрейт : 384 Кбит/сек
    Каналы : 6 каналов
    Расположение каналов : Front: L C R, Side: L R, LFE
    Частота : 48,0 КГц
    Битовая глубина : 16 бит
    Метод сжатия : С потерями
    Размер потока : 247 Мбайт (3%)
    Заголовок : Дубляж - iTunes
    Язык : Russian
    Default : Да
    Forced : Нет
    Аудио #2
    Идентификатор : 3
    Формат : AC-3
    Формат/Информация : Audio Coding 3
    Расширение режима : CM (complete main)
    Параметр Endianness формата : Big
    Идентификатор кодека : A_AC3
    Продолжительность : 1 ч. 29 м.
    Вид битрейта : Постоянный
    Битрейт : 384 Кбит/сек
    Каналы : 6 каналов
    Расположение каналов : Front: L C R, Side: L R, LFE
    Частота : 48,0 КГц
    Битовая глубина : 16 бит
    Метод сжатия : С потерями
    Размер потока : 247 Мбайт (3%)
    Заголовок : Украинский - iTunes
    Язык : Ukrainian
    Default : Нет
    Forced : Нет
    Аудио #3
    Идентификатор : 4
    Формат : AC-3
    Формат/Информация : Audio Coding 3
    Расширение режима : CM (complete main)
    Параметр Endianness формата : Big
    Идентификатор кодека : A_AC3
    Продолжительность : 1 ч. 29 м.
    Вид битрейта : Постоянный
    Битрейт : 448 Кбит/сек
    Каналы : 6 каналов
    Расположение каналов : Front: L C R, Side: L R, LFE
    Частота : 48,0 КГц
    Битовая глубина : 16 бит
    Метод сжатия : С потерями
    Размер потока : 288 Мбайт (4%)
    Заголовок : Frehch
    Язык : French
    Default : Нет
    Forced : Нет
    Меню
    00:00:00.000 : en:00:00:00.000
    00:04:54.000 : en:00:04:54.000
    00:10:58.292 : en:00:10:58.292
    00:13:54.125 : en:00:13:54.125
    00:18:00.875 : en:00:18:00.875
    00:23:18.750 : en:00:23:18.750
    00:28:03.542 : en:00:28:03.542
    00:32:55.000 : en:00:32:55.000
    00:36:14.458 : en:00:36:14.458
    00:41:19.833 : en:00:41:19.833
    00:44:54.708 : en:00:44:54.708
    00:50:25.000 : en:00:50:25.000
    00:56:41.792 : en:00:56:41.792
    01:02:39.458 : en:01:02:39.458
    01:08:48.750 : en:01:08:48.750
    01:13:12.667 : en:01:13:12.667
    01:17:43.958 : en:01:17:43.958
    01:22:49.917 : en:01:22:49.917

    Release was prepared by 60-fps.org

  2. Longevity:
    2 years 8 months
    Posts:
    9
    Gender:
    Male
    Встаньте кто-нибудь на раздачу, пожалуйста!!!
    08-Mar-2019 00:18 (after 1 year 10 months)
  3. Longevity:
    2 years 8 months
    Posts:
    9
    Gender:
    Male
    Раздача живая?
    25-Jan-2020 20:59 (after 10 months 17 days)
  4. Longevity:
    5 years 2 months
    Posts:
    1681
    Gender:
    Male
    11182Раздача живая?
    Возможно к сожалению мертва... у меня на сервере её нет... !
    26-Jan-2020 02:35 (after 5 hours)
  5. Longevity:
    2 years 8 months
    Posts:
    9
    Gender:
    Male
    Сообщение появится после проверки модератором
    26-Jan-2020 10:13 (after 7 hours)


You cannot post new topics in this forum
You cannot reply to topics in this forum
You cannot edit your posts in this forum
You cannot delete your posts in this forum
You cannot vote in polls in this forum
You cannot attach files in this forum
You cannot download files in this forum