[Цитировать]
Kryl

«Чудеса начинаются с мечты !»- Информация
Название: Балерина
Оригинальное название: Ballerina
Год выхода: 2016
Жанр: Мультфильм, мюзикл, приключения, семейный, полнометражный
Режиссер: Эрик Саммер, Эрик Уорин
Сценарий: Эрик Саммер, Лорен Зэйтун, Кэрол Ноубл
Продюсер: Валери д’Отей, Николя Дюваль-Адассовски, Андре Руле
Персонажей озвучивали: Эль Фаннинг, Карли Рэй Джепсен, Мэдди Зиглер, Терренс Скаммелл, Tamir Kapelian, Джули Ханер, Джо Шеридан, Элана Дункельман, Шошана Спелинг, Джэми Уотсон
--Сюжет:
Сказочно красивый Париж 1884 года. Обычная девочка из сиротского приюта мечтает только об одном — стать знаменитой балериной. Впереди ее ждет самое волшебное приключение всей ее жизни. И ничто не сможет встать у нее на пути
- Страна: Франция, Канада
Продолжительность: 01:29:23

Файл
Кодек: MPEG4/ISO/AVC/H.264
Формат: MKV
Качество: BDRip 1080p | 60 fps
Видео: 1920 x 804 (2.388) | 60.000 fps | 20.0 Мбит/сек
Аудио 1: AC3 | 5.1 | 48 kHz | 384 kbps | 16 bit | Дубляж - iTunes |
Аудио 2: AC3 | 5.1 | 48 kHz | 384 kbps | 16 bit | Дубляж - iTunes |
Аудио 3: AC3 | 5.1 | 48 kHz | 448 kbps | 16 bit | French |

MedifInfo

Видео
Идентификатор : 1
Формат : AVC
Формат/Информация : Advanced Video Codec
Профиль формата : High@L4.1
Параметр CABAC формата : Да
Параметр ReFrames формата : 5 кадров
Идентификатор кодека : V_MPEG4/ISO/AVC
Продолжительность : 1 ч. 29 м.
Битрейт : 20,0 Мбит/сек
Ширина : 1920 пикселей
Высота : 804 пикселя
Соотношение сторон : 2,40:1
Режим частоты кадров : Постоянный
Частота кадров : 60,000 кадров/сек
Цветовое пространство : YUV
Субдискретизация насыщенности : 4:2:0
Битовая глубина : 8 бит
Тип развёртки : Прогрессивная
Бит/(Пиксели*Кадры) : 0.216
Размер потока : 12,2 Гбайт (92%)
Заголовок : www.60-fps.org
Библиотека кодирования : x264 core 148 r2638 7599210
Настройки программы : cabac=1 / ref=5 / deblock=1:-3:-3 / analyse=0x3:0x113 / me=umh / subme=8 / psy=1 / psy_rd=1.00:0.25 / mixed_ref=1 / me_range=32 / chroma_me=1 / trellis=1 / 8x8dct=1 / cqm=0 / deadzone=6,6 / fast_pskip=1 / chroma_qp_offset=-4 / threads=12 / lookahead_threads=2 / sliced_threads=0 / nr=0 / decimate=0 / interlaced=0 / bluray_compat=0 / constrained_intra=0 / bframes=3 / b_pyramid=2 / b_adapt=2 / b_bias=0 / direct=3 / weightb=1 / open_gop=0 / weightp=2 / keyint=600 / keyint_min=59 / scenecut=40 / intra_refresh=0 / rc_lookahead=50 / rc=2pass / mbtree=1 / bitrate=19999 / ratetol=1.0 / qcomp=0.80 / qpmin=0 / qpmax=69 / qpstep=4 / cplxblur=20.0 / qblur=0.5 / vbv_maxrate=62500 / vbv_bufsize=78125 / nal_hrd=none / filler=0 / ip_ratio=1.10 / aq=1:0.50
Default : Да
Forced : Нет
Аудио #1
Идентификатор : 2
Формат : AC-3
Формат/Информация : Audio Coding 3
Расширение режима : CM (complete main)
Параметр Endianness формата : Big
Идентификатор кодека : A_AC3
Продолжительность : 1 ч. 29 м.
Вид битрейта : Постоянный
Битрейт : 384 Кбит/сек
Каналы : 6 каналов
Расположение каналов : Front: L C R, Side: L R, LFE
Частота : 48,0 КГц
Битовая глубина : 16 бит
Метод сжатия : С потерями
Размер потока : 247 Мбайт (2%)
Заголовок : Дубляж - iTunes
Язык : Russian
Default : Да
Forced : Нет
Аудио #2
Идентификатор : 3
Формат : AC-3
Формат/Информация : Audio Coding 3
Расширение режима : CM (complete main)
Параметр Endianness формата : Big
Идентификатор кодека : A_AC3
Продолжительность : 1 ч. 29 м.
Вид битрейта : Постоянный
Битрейт : 384 Кбит/сек
Каналы : 6 каналов
Расположение каналов : Front: L C R, Side: L R, LFE
Частота : 48,0 КГц
Битовая глубина : 16 бит
Метод сжатия : С потерями
Размер потока : 247 Мбайт (2%)
Заголовок : Украинский - iTunes
Язык : Ukrainian
Default : Нет
Forced : Нет
Аудио #3
Идентификатор : 4
Формат : AC-3
Формат/Информация : Audio Coding 3
Расширение режима : CM (complete main)
Параметр Endianness формата : Big
Идентификатор кодека : A_AC3
Продолжительность : 1 ч. 29 м.
Вид битрейта : Постоянный
Битрейт : 448 Кбит/сек
Каналы : 6 каналов
Расположение каналов : Front: L C R, Side: L R, LFE
Частота : 48,0 КГц
Битовая глубина : 16 бит
Метод сжатия : С потерями
Размер потока : 288 Мбайт (2%)
Заголовок : Frehch
Язык : French
Default : Нет
Forced : Нет
Меню
00:00:00.000 : en:00:00:00.000
00:04:54.000 : en:00:04:54.000
00:10:58.292 : en:00:10:58.292
00:13:54.125 : en:00:13:54.125
00:18:00.875 : en:00:18:00.875
00:23:18.750 : en:00:23:18.750
00:28:03.542 : en:00:28:03.542
00:32:55.000 : en:00:32:55.000
00:36:14.458 : en:00:36:14.458
00:41:19.833 : en:00:41:19.833
00:44:54.708 : en:00:44:54.708
00:50:25.000 : en:00:50:25.000
00:56:41.792 : en:00:56:41.792
01:02:39.458 : en:01:02:39.458
01:08:48.750 : en:01:08:48.750
01:13:12.667 : en:01:13:12.667
01:17:43.958 : en:01:17:43.958
01:22:49.917 : en:01:22:49.917

Релиз подготовлен 60 - fps

[Цитировать]
Андрей Масик

Посмотрел как 1080p? особо не увидел эффекта как в 60fps.

[Цитировать]
Талямба

Андрей Масик, суть не уловил... Нет слов

[Цитировать]
Андрей Масик

В смысле что нет эффекта как в 60 fps, Просто мультик в хорошем качестве и не больше.

[Цитировать]
Талямба

Андрей Масик, может у тебя просто монитор или телик не настроен на 60fps,лично я и тысячи пользовотелей видят разницу между 60fps... Мне скучно
 
Показать сообщения:    

Текущее время: 22-Июл 07:55

Часовой пояс: UTC + 3


Вы не можете начинать темы
Вы не можете отвечать на сообщения
Вы не можете редактировать свои сообщения
Вы не можете удалять свои сообщения
Вы не можете голосовать в опросах
Вы не можете прикреплять файлы к сообщениям
Вы не можете скачивать файлы