Агент Ева / Ava (2020) BDRip 1080p | 60 fps Пятый элемент / The Fifth Element (1997) BDRip 1080p | 60 fps Властелин колец: Трилогия / The Lord of the Rings: Trilogy (2001-2003) BDRip-AVC | Extended Cut | 60 fps Форпост / The Outpost (2020) BDRip 1080p | 60 fps Охота / The Hunt (2020) BDRip 1080p | 60 fps Вивариум / Vivarium (2019) BDRip 720p | 60 fps Ультрафиолет / Ultraviolet (2006) BDRip 1080p | 60 fps Поезд смерти / D-Railed (2018) BDRip 1080p | 60 fps
  1. Longevity:
    6 years 4 months
    Posts:
    2414
    Gender:
    Male
    «Danger runs deep» Информация
    Название: Багровый прилив
    Оригинальное название: Crimson Tide
    Год выхода: 2017
    Жанр: Боевик, триллер, драма
    Режиссер: Тони Скотт
    Сценарий: Майкл Шиффер, Ричард П. Хенрик
    Продюсер: Джерри Брукхаймер, Дон Симпсон, Лукас Фостер
    В ролях: Дензел Вашингтон, Джин Хэкмен, Мэтт Крэвен, Джордж Зунза, Вигго Мортенсен, Джеймс Гандольфини, Роки Кэрролл, Джейм Гомез, Майкл Милхоун, Скотт Баркхолдер, Дэнни Нуччи, Лилло Бранкато, Эрик Браскоттер, Рик Шродер, Стив Зан, Марселло Тедфорд

    Сюжет:
    В мире есть три самых могущественных человека — президент России, президент США и капитан атомной подводной лодки, несущей на своем борту смертоносное ядерное оружие.
    Но на любой войне случаются моменты, когда от выполнения приказа зависит судьба всего человечества, и тогда в руках капитана находятся жизни миллионов людей. И только от его выдержки и разума зависит, окрасится ли поутру океанский прилив в зловещий багровый цвет…

    Страна: США
    Продолжительность: 01:55:46

    Файл
    Кодек: MPEG4|ISO|AVC|H.264|[email protected]|
    Формат: MKV
    Качество: BDRip 1080p | 60 fps
    Видео: 1920 x 800 (2.400) | 59.940 fps | 25.0 Мбит/сек
    Аудио 01: DTS | 5.1 | 48 kHz | 1510 kbps | 24 bit | Профессиональный - П.Гланц и И.Королева |
    Аудио 02: AC3 | 2.0 | 48 kHz | 224 kbps | 16 bit | Профессиональный, многоголосый - Дисней |
    Аудио 03: AC3 | 5.1 | 48 kHz | 448 kbps | 16 bit | Авторский - А.Гаврилова |
    Аудио 04: AC3 | 2.0 | 48 kHz | 256 kbps | 16 bit | Авторский - Ю.Живова |
    Аудио 05: DTS | 5.1 | 48 kHz | 1512 kbps | 24 bit | English |
    Субтитры: русские, английские

    MedifInfo

    Видео
    Идентификатор : 1
    Формат : AVC
    Формат/Информация : Advanced Video Codec
    Профиль формата : [email protected]
    Параметр CABAC формата : Да
    Параметр ReFrames формата : 5 кадров
    Идентификатор кодека : V_MPEG4/ISO/AVC
    Продолжительность : 1 ч. 55 м.
    Битрейт : 25,0 Мбит/сек
    Ширина : 1920 пикселей
    Высота : 800 пикселей
    Соотношение сторон : 2,40:1
    Режим частоты кадров : Постоянный
    Частота кадров : 59,880 кадров/сек
    Частота кадров в оригинале : 59,940 кадров/сек
    Цветовое пространство : YUV
    Субдискретизация насыщенности : 4:2:0
    Битовая глубина : 8 бит
    Тип развёртки : Прогрессивная
    Бит/(Пиксели*Кадры) : 0.272
    Размер потока : 19,7 Гбайт (84%)
    Заголовок : www.60-fps.org
    Библиотека кодирования : x264 core 148 r2744 b97ae06
    Настройки программы : cabac=1 / ref=5 / deblock=1:-3:-3 / analyse=0x3:0x113 / me=umh / subme=8 / psy=1 / psy_rd=1.00:0.25 / mixed_ref=1 / me_range=32 / chroma_me=1 / trellis=1 / 8x8dct=1 / cqm=0 / deadzone=6,6 / fast_pskip=1 / chroma_qp_offset=-4 / threads=12 / lookahead_threads=2 / sliced_threads=0 / nr=0 / decimate=0 / interlaced=0 / bluray_compat=0 / constrained_intra=0 / bframes=3 / b_pyramid=2 / b_adapt=1 / b_bias=0 / direct=3 / weightb=1 / open_gop=0 / weightp=2 / keyint=599 / keyint_min=59 / scenecut=40 / intra_refresh=0 / rc_lookahead=50 / rc=2pass / mbtree=1 / bitrate=24999 / ratetol=1.0 / qcomp=0.80 / qpmin=0 / qpmax=69 / qpstep=4 / cplxblur=20.0 / qblur=0.5 / vbv_maxrate=62500 / vbv_bufsize=78125 / nal_hrd=none / filler=0 / ip_ratio=1.10 / aq=1:0.50
    Default : Да
    Forced : Нет
    Аудио #1
    Идентификатор : 2
    Формат : DTS
    Формат/Информация : Digital Theater Systems
    Режим : 16
    Параметр Endianness формата : Big
    Идентификатор кодека : A_DTS
    Продолжительность : 1 ч. 55 м.
    Вид битрейта : Постоянный
    Битрейт : 1510 Кбит/сек
    Каналы : 6 каналов
    Расположение каналов : Front: L C R, Side: L R, LFE
    Частота : 48,0 КГц
    Битовая глубина : 24 бит
    Метод сжатия : С потерями
    Размер потока : 1,22 Гбайт (5%)
    Заголовок : Профессиональный (двухголосый, закадровый) П.Гланц и И.Королева
    Язык : Russian
    Default : Нет
    Forced : Нет
    Аудио #2
    Идентификатор : 3
    Формат : AC-3
    Формат/Информация : Audio Coding 3
    Расширение режима : CM (complete main)
    Параметр Endianness формата : Big
    Идентификатор кодека : A_AC3
    Продолжительность : 1 ч. 55 м.
    Вид битрейта : Постоянный
    Битрейт : 224 Кбит/сек
    Каналы : 2 канала
    Расположение каналов : Front: L R
    Частота : 48,0 КГц
    Битовая глубина : 16 бит
    Метод сжатия : С потерями
    Размер потока : 185 Мбайт (1%)
    Заголовок : Профессиональный (многоголосый, закадровый) Дисней
    Язык : Russian
    Default : Нет
    Forced : Нет
    Аудио #3
    Идентификатор : 4
    Формат : AC-3
    Формат/Информация : Audio Coding 3
    Расширение режима : CM (complete main)
    Параметр Endianness формата : Big
    Идентификатор кодека : A_AC3
    Продолжительность : 1 ч. 55 м.
    Вид битрейта : Постоянный
    Битрейт : 448 Кбит/сек
    Каналы : 6 каналов
    Расположение каналов : Front: L C R, Side: L R, LFE
    Частота : 48,0 КГц
    Битовая глубина : 16 бит
    Метод сжатия : С потерями
    Размер потока : 371 Мбайт (2%)
    Заголовок : Авторский одноголосый А.Гаврилов
    Язык : Russian
    Default : Нет
    Forced : Нет
    Аудио #4
    Идентификатор : 5
    Формат : AC-3
    Формат/Информация : Audio Coding 3
    Расширение режима : CM (complete main)
    Параметр Endianness формата : Big
    Идентификатор кодека : A_AC3
    Продолжительность : 1 ч. 55 м.
    Вид битрейта : Постоянный
    Битрейт : 256 Кбит/сек
    Каналы : 2 канала
    Расположение каналов : Front: L R
    Частота : 48,0 КГц
    Битовая глубина : 16 бит
    Метод сжатия : С потерями
    Размер потока : 212 Мбайт (1%)
    Заголовок : Авторский одноголосый Ю.Живов
    Язык : Russian
    Default : Нет
    Forced : Нет
    Аудио #5
    Идентификатор : 6
    Формат : DTS
    Формат/Информация : Digital Theater Systems
    Режим : 16
    Параметр Endianness формата : Big
    Идентификатор кодека : A_DTS
    Продолжительность : 1 ч. 55 м.
    Вид битрейта : Постоянный
    Битрейт : 1512 Кбит/сек
    Каналы : 6 каналов
    Расположение каналов : Front: L C R, Side: L R, LFE
    Частота : 48,0 КГц
    Битовая глубина : 24 бит
    Метод сжатия : С потерями
    Размер потока : 1,22 Гбайт (5%)
    Заголовок : Original
    Язык : English
    Default : Нет
    Forced : Нет
    Текст #1
    Идентификатор : 7
    Формат : UTF-8
    Идентификатор кодека : S_TEXT/UTF8
    Идентификатор кодека/Информация : UTF-8 Plain Text
    Язык : Russian
    Default : Да
    Forced : Нет
    Текст #2
    Идентификатор : 8
    Формат : UTF-8
    Идентификатор кодека : S_TEXT/UTF8
    Идентификатор кодека/Информация : UTF-8 Plain Text
    Язык : English
    Default : Нет
    Forced : Нет
    По заказу пользователя evgen2238

    Release was prepared by 60-fps.org

  2. Longevity:
    4 years
    Posts:
    21
    Gender:
    Male
    Вот бы посмотреть Годзиллу 98 года.
    22-Oct-2017 07:48 (after 11 hours)
  3. Longevity:
    4 years 4 months
    Posts:
    110
    Gender:
    Male
    А 720p будет?
    22-Oct-2017 20:25 (after 12 hours)
  4. Longevity:
    6 years 4 months
    Posts:
    2414
    Gender:
    Male
    8807А 720p будет?
    нет ...
    22-Oct-2017 21:18 (after 52 minutes)
  5. Longevity:
    4 years 6 months
    Posts:
    2
    Gender:
    Unknown
    Про Гадзиллу 98го готов поддержать!
    23-Oct-2017 08:05 (after 10 hours)
  6. Longevity:
    6 years 4 months
    Posts:
    2414
    Gender:
    Male
    8809Про Гадзиллу 98го готов поддержать!
    Ну вы же знаете где тему создавать надо .
    23-Oct-2017 09:57 (after 1 hour 52 minutes)


You cannot post new topics in this forum
You cannot reply to topics in this forum
You cannot edit your posts in this forum
You cannot delete your posts in this forum
You cannot vote in polls in this forum
You cannot attach files in this forum
You cannot download files in this forum