[Цитировать]
Kryl

-Backstreet Boys - Show ’Em (2013) Master 1080p | 60 fps
(What You’re Made Of)
- -Информация
Исполнитель: Backstreet Boys
Название: Show ’Em (What You’re Made Of)
Год выхода: 2013
Продолжительность: 00:03:58
Описание:
"Show ’Em (What You’re Made Of)" - самый простой клип из видеографии Backstreet Boys (в плане зрелищности). Но для многих поклонников группы он является самым лучшим. Перевод названия "Покажи им, из какого ты теста (из чего ты сделан)" - это своеобразный призыв, стать более открытым и сильным, как со времен стали ребята из BSB, преодолев многие препятствия на своем пути. В видео участник Brian демонстрирует свой обнаженный торс, не стесняясь своего шрама от операции на сердце; AJ оголившись до пояса показывает тату, посвященное своей дочери, оставив позади времена своей наркозависимости; Nick с повзрослевшим взглядом, вынес свой урок от скандалов с бывшими подружками; Howie с радостью на лице больше не чувствует себя в тени остальных участников квинтета; Kevin с грустным выражениям лица переживает утрату отца и до сих пор вспоминает его слова: "Покажи им, из какого ты теста".
Легендарная группа с одной из своих самых сильных песен.
-Файл
Кодек: MPEG4 | ISO/AVC | H.264 | High@L 4.2
Формат: MKV
Качество: Master 1080p | 60 fps
Видео : 1920 x 810 (2.370) | 59.940 fps 15.0 Мбит/сек
Аудио : DTS | 1413 Кбит/сек | 48.0 KHz | 2.0 channels

MediaInfo

Видео
Идентификатор : 1
Формат : AVC
Формат/Информация : Advanced Video Codec
Профиль формата : High@L4.2
Параметр CABAC формата : Да
Параметр ReFrames формата : 3 кадра
Идентификатор кодека : V_MPEG4/ISO/AVC
Продолжительность : 3 м. 58 с.
Вид битрейта : Переменный
Битрейт : 14,6 Мбит/сек
Максимальный битрейт : 15,0 Мбит/сек
Ширина : 1920 пикселей
Высота : 788 пикселей
Соотношение сторон : 2,40:1
Режим частоты кадров : Постоянный
Частота кадров : 59,880 кадров/сек
Частота кадров в оригинале : 59,940 кадров/сек
Стандарт вещания : PAL
Цветовое пространство : YUV
Субдискретизация насыщенности : 4:2:0
Битовая глубина : 8 бит
Тип развёртки : Прогрессивная
Бит/(Пиксели*Кадры) : 0.161
Размер потока : 416 Мбайт (89%)
Заголовок : www.60-fps.org
Язык : English
Default : Да
Forced : Нет
Основные цвета : BT.709
Характеристики трансфера : BT.709
Коэффициенты матрицы : BT.709
colour_range : Limited
Аудио
Идентификатор : 2
Формат : DTS
Формат/Информация : Digital Theater Systems
Режим : 16
Параметр Endianness формата : Big
Идентификатор кодека : A_DTS
Продолжительность : 3 м. 58 с.
Вид битрейта : Постоянный
Битрейт : 1413 Кбит/сек
Каналы : 2 канала
Расположение каналов : Front: L R
Частота : 48,0 КГц
Битовая глубина : 16 бит
Метод сжатия : С потерями
Задержка видео : 83 мс.
Размер потока : 40,2 Мбайт (9%)
Заголовок : DTS
Язык : English
Default : Да
Forced : Нет
DURATION : 00:03:58.624000000
NUMBER_OF_FRAMES : 22371
NUMBER_OF_BYTES : 42146964
_STATISTICS_WRITING_APP : mkvmerge v7.6.0 ('Garden of Dreams') 32bit built on Feb 8 2015 12:51:39
_STATISTICS_WRITING_DATE_UTC : 2016-07-29 09:45:22
_STATISTICS_TAGS : BPS DURATION NUMBER_OF_FRAMES NUMBER_OF_BYTES

Релиз подготовлен 60 - fps

 
Показать сообщения:    

Текущее время: 03-Дек 16:43

Часовой пояс: UTC + 3


Вы не можете начинать темы
Вы не можете отвечать на сообщения
Вы не можете редактировать свои сообщения
Вы не можете удалять свои сообщения
Вы не можете голосовать в опросах
Вы не можете прикреплять файлы к сообщениям
Вы не можете скачивать файлы