Rammstein (БЕЗ ЦЕНЗУРЫ)| WEBRip 1080p | 60 fps Britney Spears - Oops! I Did It Again Uncut (2009) HD 1080p | 60 fps BLACKPINK | WEBRip 1080p | 60 fps Britney Spears - Toxic (2004) HDTVRip 1080p | 60 fps Britney Spears - ...Baby One More Time (2009) Full HD 1080p | 60 fps ITZY | WEBRip 1080p | 60 fps Lady Gaga - Poker Face (2009) Full HD 1080p | 60 fps Jennifer Lopez ft. Iggy Azalea - Booty (2014) Full HD 1080p | 60 fps
  1. Longevity:
    5 years 9 months
    Posts:
    283
    Gender:
    Male
    Бьянка - Пошли вы в жопу (2016) Full HD 1080p | 60 fps
    Информация о Клипе:
    Исполнители: Бьянка
    Название: Пошли вы в жопу
    Год выпуска: 2016 г.
    Жанр: Pop,Hip-Hop
    Продолжительность: 00:04:05
    Файл:
    Формат видео: MKV
    Качество видео: Full HD 1080p | 60 fps
    Видео кодек: H.264
    Аудио кодек: AC3
    Видео: 1920x736 | 59,940 fps | 25,0 Мбит/сек
    Аудио: AC3 | 2 channels | 48 kHz | 448 Кбит/сек

    Автор Рипа:

    MediaInfo

    Видео
    Идентификатор : 1
    Формат : AVC
    Формат/Информация : Advanced Video Codec
    Профиль формата : High@L4.1
    Параметр CABAC формата : Да
    Параметр ReFrames формата : 4 кадра
    Режим смешивания : Header stripping
    Идентификатор кодека : V_MPEG4/ISO/AVC
    Продолжительность : 4 м. 5 с.
    Битрейт : 25,0 Мбит/сек
    Ширина : 1920 пикселей
    Высота : 736 пикселей
    Соотношение сторон : 2,609
    Режим частоты кадров : Постоянный
    Частота кадров : 59,940 (59940/1000) кадров/сек
    Цветовое пространство : YUV
    Субдискретизация насыщенности : 4:2:0
    Битовая глубина : 8 бит
    Тип развёртки : Прогрессивная
    Бит/(Пиксели*Кадры) : 0.295
    Размер потока : 709 Мбайт (96%)
    Заголовок : Бьянка - Пошли вы в жопу « R.G 60-FPS Rip By Kamikkadze »
    Библиотека кодирования : x264 core 146 r2538 121396c
    Настройки программы : cabac=1 / ref=4 / deblock=1:-1:1 / analyse=0x3:0x133 / me=umh / subme=9 / psy=1 / psy_rd=1.00:0.15 / mixed_ref=1 / me_range=24 / chroma_me=1 / trellis=2 / 8x8dct=1 / cqm=0 / deadzone=21,11 / fast_pskip=1 / chroma_qp_offset=-3 / threads=6 / lookahead_threads=1 / sliced_threads=0 / nr=0 / decimate=1 / interlaced=0 / bluray_compat=0 / constrained_intra=0 / bframes=6 / b_pyramid=2 / b_adapt=2 / b_bias=0 / direct=1 / weightb=1 / open_gop=0 / weightp=2 / keyint=250 / keyint_min=25 / scenecut=40 / intra_refresh=0 / rc=abr / mbtree=0 / bitrate=24981 / ratetol=1.0 / qcomp=0.60 / qpmin=0 / qpmax=69 / qpstep=4 / ip_ratio=1.40 / pb_ratio=1.30 / aq=1:1.00
    Default : Да
    Forced : Нет
    Аудио
    Идентификатор : 2
    Формат : AC-3
    Формат/Информация : Audio Coding 3
    Расширение режима : CM (complete main)
    Параметр Endianness формата : Big
    Режим смешивания : Header stripping
    Идентификатор кодека : A_AC3
    Продолжительность : 4 м. 5 с.
    Вид битрейта : Постоянный
    Битрейт : 448 Кбит/сек
    Каналы : 2 канала
    Расположение каналов : Front: L R
    Частота : 48,0 КГц
    Частота кадров : 31,250 кадров/сек (1536 spf)
    Метод сжатия : С потерями
    Размер потока : 13,1 Мбайт (2%)
    Default : Да
    Forced : Нет
    Просьба к переливающим на другие сайты, в оформлении указывайте пожалуйста авторство рипа - Kamikkadze

    Release was prepared by 60 - fps



You cannot post new topics in this forum
You cannot reply to topics in this forum
You cannot edit your posts in this forum
You cannot delete your posts in this forum
You cannot vote in polls in this forum
You cannot attach files in this forum
You cannot download files in this forum