Агент Ева / Ava (2020) BDRip 1080p | 60 fps Танго и Кэш / Tango & Cash (1989) BDRemux 1080p | 60 fps Властелин колец: Трилогия / The Lord of the Rings: Trilogy (2001-2003) BDRip-AVC | Extended Cut | 60 fps Ультрафиолет / Ultraviolet (2006) BDRip 1080p | 60 fps Вивариум / Vivarium (2019) BDRip 720p | 60 fps Девушка-невидимка / Shadow Girl (2019) BDRip 720p | 60 fps Не входи / The Owners(2020) BDRip 720p | 60 fps Достать ножи / Knives Out (2019) BDRip 1080p | 60 fps
  1. Longevity:
    6 years 7 months
    Posts:
    2414
    Gender:
    Male
    «Power. Respect. Juice. How far would you go to get it?»- Информация
    Название: Авторитет
    Оригинальное название: Juice
    Год выхода: 1992
    Жанр: Криминал, драма, триллер
    Режиссер: Эрнест Р. Дикерсон
    Сценарий: Эрнест Р. Дикерсон, Герард Браун III
    Продюсер: Питер Франкфурт, Дэвид Хейман, Нил Х. Мориц
    В ролях: Тупак Шакур, Омар Эппс, Жермен Хагги Хопкинс, Халил Кейн, Синди Херрон, Винсент Лареска, Сэмюэл Л. Джексон, Джордж Гор II, Грэйс Гарлэнд, Куин Латифа
    --Сюжет:
    Фильм рассказывает о тяжелой жизни черных людей в Гарлеме. Четверо подростков ведут преступную жизнь и все казалось бы «хорошо», но их жизнь меняется после неудачного ограбления магазина.
    - Страна: США
    Продолжительность: 01:34:40

    Файл
    Кодек: MPEG4/ISO/AVC/H.264
    Формат: MKV
    Качество: BDRip 720p | 60 fps
    Видео: 1280 x 720 (1.778) | 59.940 fps | 10.0 Мбит/сек
    Аудио 1: AC3 | 2.0 | 48 kHz | 384 kbps | 16 bit | Профессиональный двухголосый - НТВ+ |
    Аудио 2: AC3 | 5.1 | 48 kHz | 448 kbps | 16 bit | English |

    MedifInfo

    Видео
    Идентификатор : 1
    Формат : AVC
    Формат/Информация : Advanced Video Codec
    Профиль формата : [email protected]
    Параметр CABAC формата : Да
    Параметр ReFrames формата : 3 кадра
    Идентификатор кодека : V_MPEG4/ISO/AVC
    Продолжительность : 1 ч. 34 м.
    Вид битрейта : Переменный
    Битрейт : 9671 Кбит/сек
    Максимальный битрейт : 10000 Кбит/сек
    Ширина : 1280 пикселей
    Высота : 720 пикселей
    Соотношение сторон : 16:9
    Режим частоты кадров : Постоянный
    Частота кадров : 59,880 кадров/сек
    Частота кадров в оригинале : 59,940 кадров/сек
    Стандарт вещания : PAL
    Цветовое пространство : YUV
    Субдискретизация насыщенности : 4:2:0
    Битовая глубина : 8 бит
    Тип развёртки : Прогрессивная
    Бит/(Пиксели*Кадры) : 0.175
    Размер потока : 6,40 Гбайт (90%)
    Заголовок : www.60-fps.org
    Язык : English
    Default : Да
    Forced : Нет
    Основные цвета : BT.709
    Характеристики трансфера : BT.709
    Коэффициенты матрицы : BT.709
    colour_range : Limited
    Аудио #1
    Идентификатор : 2
    Формат : AC-3
    Формат/Информация : Audio Coding 3
    Расширение режима : CM (complete main)
    Параметр Endianness формата : Big
    Идентификатор кодека : A_AC3
    Продолжительность : 1 ч. 34 м.
    Вид битрейта : Постоянный
    Битрейт : 384 Кбит/сек
    Каналы : 2 канала
    Расположение каналов : Front: L R
    Частота : 48,0 КГц
    Битовая глубина : 16 бит
    Метод сжатия : С потерями
    Размер потока : 260 Мбайт (4%)
    Заголовок : Профессиональный двухголосый закадровый - НТВ+
    Язык : Russian
    Default : Да
    Forced : Нет
    Аудио #2
    Идентификатор : 3
    Формат : AC-3
    Формат/Информация : Audio Coding 3
    Расширение режима : CM (complete main)
    Параметр Endianness формата : Big
    Идентификатор кодека : A_AC3
    Продолжительность : 1 ч. 34 м.
    Вид битрейта : Постоянный
    Битрейт : 448 Кбит/сек
    Каналы : 6 каналов
    Расположение каналов : Front: L C R, Side: L R, LFE
    Частота : 48,0 КГц
    Битовая глубина : 16 бит
    Метод сжатия : С потерями
    Размер потока : 303 Мбайт (4%)
    Заголовок : English
    Язык : English
    Default : Нет
    Forced : Нет
    Меню
    00:00:00.000 : en:00:00:00.000
    00:02:40.369 : en:00:02:40.369
    00:20:43.325 : en:00:20:43.325
    00:29:43.865 : en:00:29:43.865
    00:33:41.269 : en:00:33:41.269
    00:41:07.799 : en:00:41:07.799
    00:46:46.053 : en:00:46:46.053
    00:49:22.459 : en:00:49:22.459
    00:57:53.095 : en:00:57:53.095
    01:13:07.633 : en:01:13:07.633
    01:21:50.697 : en:01:21:50.697

    Release was prepared by 60-fps.org

  2. Longevity:
    4 years 7 months
    Posts:
    7
    Gender:
    Unknown
    че то не качается Грущу
    23-Jun-2017 14:50 (after 1 day 2 hours)
  3. Longevity:
    4 years 8 months
    Posts:
    1586
    Gender:
    Male
    tolin111, ближе к вечеру админ будет и станет на раздачу...
    23-Jun-2017 17:11 (after 2 hours 21 minute)


You cannot post new topics in this forum
You cannot reply to topics in this forum
You cannot edit your posts in this forum
You cannot delete your posts in this forum
You cannot vote in polls in this forum
You cannot attach files in this forum
You cannot download files in this forum