VIP

  1. Longevity:
    7 years
    Posts:
    2413
    Gender:
    Male
    «У скорости нет предела»- Информация
    Название: Автобан
    Оригинальное название: Collide
    Год выхода: 2016
    Жанр: Боевик, триллер
    Режиссер: Эрен Криви
    Сценарий: Ф. Скотт Фрэйзер, Эрен Криви
    Продюсер: Рори Аиткен, Аарон Ауч, Риан Кехилл
    В ролях: Фелисити Джонс, Энтони Хопкинс, Николас Холт, Бен Кингсли, Надиа Хилкер, Марван Кензари, Клеменс Шик, Александр Йованович, Кристиан Перерсен, Линдси Элизабет
    --Сюжет:
    Американский турист Кейси Штайн, путешествуя с подругой по Европе, оказывается втянутым в разборки между двумя враждующими мафиозными группировками. Одну из них возглавляет Хаген, другую — Геран. И с этого момента начинается смертельно опасная гонка на запредельной скорости по автобанам Германии.- Страна: Великобритания, Германия, Китай
    Продолжительность: 01:38:42

    Файл
    Кодек: MPEG4/ISO/AVC/H.264
    Формат: MKV
    Качество: BDRip 720p | 60 fps
    Видео: 1280 x 534 (2.397) | 59.940 fps | 10.0 Мбит/сек
    Аудио 1: AC3 | 5.1 | 48 kHz | 384 kbps | 16 bit | Дубляж - iTunes |
    Аудио 2: AC3 | 5.1 | 48 kHz | 640 kbps | 16 bit | ENG |
    Субтитры: Eng

    MedifInfo

    Видео
    Идентификатор : 1
    Формат : AVC
    Формат/Информация : Advanced Video Codec
    Профиль формата : [email protected]
    Параметр CABAC формата : Да
    Параметр ReFrames формата : 3 кадра
    Идентификатор кодека : V_MPEG4/ISO/AVC
    Продолжительность : 1 ч. 38 м.
    Вид битрейта : Переменный
    Битрейт : 9679 Кбит/сек
    Максимальный битрейт : 10000 Кбит/сек
    Ширина : 1280 пикселей
    Высота : 534 пикселя
    Соотношение сторон : 2,40:1
    Режим частоты кадров : Постоянный
    Частота кадров : 59,880 кадров/сек
    Частота кадров в оригинале : 59,940 кадров/сек
    Стандарт вещания : PAL
    Цветовое пространство : YUV
    Субдискретизация насыщенности : 4:2:0
    Битовая глубина : 8 бит
    Тип развёртки : Прогрессивная
    Бит/(Пиксели*Кадры) : 0.236
    Размер потока : 6,67 Гбайт (94%)
    Заголовок : www.60-fps.org
    Язык : English
    Default : Да
    Forced : Нет
    Основные цвета : BT.601 NTSC
    Характеристики трансфера : BT.601
    Коэффициенты матрицы : BT.601
    colour_range : Limited
    Аудио
    Идентификатор : 2
    Формат : AC-3
    Формат/Информация : Audio Coding 3
    Расширение режима : CM (complete main)
    Параметр Endianness формата : Big
    Идентификатор кодека : A_AC3
    Продолжительность : 1 ч. 38 м.
    Вид битрейта : Постоянный
    Битрейт : 384 Кбит/сек
    Каналы : 6 каналов
    Расположение каналов : Front: L C R, Side: L R, LFE
    Частота : 48,0 КГц
    Битовая глубина : 16 бит
    Метод сжатия : С потерями
    Размер потока : 271 Мбайт (4%)
    Заголовок : Дубляж - iTunes
    Язык : Russian
    Default : Да
    Forced : Нет
    Текст
    Идентификатор : 3
    Формат : UTF-8
    Идентификатор кодека : S_TEXT/UTF8
    Идентификатор кодека/Информация : UTF-8 Plain Text
    Заголовок : Original
    Язык : English
    Default : Нет
    Forced : Нет
    Меню
    00:00:00.000 : en:00:00:00.000
    00:10:29.712 : en:00:10:29.712
    00:19:13.944 : en:00:19:13.944
    00:26:06.565 : en:00:26:06.565
    00:35:39.054 : en:00:35:39.054
    00:46:35.710 : en:00:46:35.710
    00:58:15.200 : en:00:58:15.200
    01:10:06.577 : en:01:10:06.577
    01:18:05.848 : en:01:18:05.848
    01:28:32.766 : en:01:28:32.766

    Release was prepared by 60-fps.org



You cannot post new topics in this forum
You cannot reply to topics in this forum
You cannot edit your posts in this forum
You cannot delete your posts in this forum
You cannot vote in polls in this forum
You cannot attach files in this forum
You cannot download files in this forum