Аватар / Avatar (2009) BDRip 1080p | 120 fps | Extended Collector's Cut | Experimental Мстители: Война бесконечности / Avengers: Infinity War (2018) BDRip 1080p | 120 fps Хан Соло: Звёздные войны. Истории / Solo: A Star Wars Story (2018) BDRip 1080p | Локализованная версия | 120 fps Трансформеры: Месть падших / Transformers: Revenge of the Fallen (2009) BDRip 1080p | IMAX Edition | 120 fps Чужой / Alien (1979) BDRip 1080p | Director's Cut | 120 fps Аватар / Avatar (2009) BDRip 720p | Extended Cut | 95 fps Чужие / Aliens (1986) BDRip 1080p | Special Edition | 120 fps
Статистика раздачи
Размер:  19,44 GB   |    Зарегистрирован:  10 дней   |    Скачан:  14 раз

Полного источника не было: 9 часов

Личеров:  1  [  1 MB/s  ]   Подробная статистика пиров
 
 
 
  1. Стаж:
    4 года
    Сообщений:
    2414
    Пол:
    Мужской
    «Это новый мир» Информация
    Название: Аватар
    Оригинальное название: Avatar
    Год выхода: 2009
    Жанр: фантастика, боевик, драма, приключения
    Режиссер: Джеймс Кэмерон
    Сценарий: Джеймс Кэмерон
    Продюсер: Джеймс Кэмерон, Джон Ландау, Брук Бретон
    В ролях: Сэм Уортингтон, Зои Салдана, Сигурни Уивер, Стивен Лэнг, Мишель Родригес, Джованни Рибизи, Джоэль Мур, Си Си Эйч Паундер, Уэс Студи, Лас Алонсо

    Сюжет:
    Джейк Салли — бывший морской пехотинец, прикованный к инвалидному креслу. Несмотря на немощное тело, Джейк в душе по-прежнему остается воином. Он получает задание совершить путешествие в несколько световых лет к базе землян на планете Пандора, где корпорации добывают редкий минерал, имеющий огромное значение для выхода Земли из энергетического кризиса.

    Страна: Великобритания, США
    Продолжительность: 02:58:09

    Файл
    Кодек: H.264
    Формат: MKV
    Качество: BDRip 720p
    Видео: 1280 x 720 (1.778) | 95 fps | 15.0 Мбит/сек
    Аудио: AC3 | 5.1 | 48 kHz | 640 kbps | 16 bit | Дубляж - Лицензия |

    MedifInfo

    Видео
    Идентификатор : 1
    Формат : AVC
    Формат/Информация : Advanced Video Codec
    Профиль формата : High@L4.1
    Настройки формата : CABAC / 4 Ref Frames
    Параметр CABAC формата : Да
    Параметр RefFrames формата : 4 кадра
    Идентификатор кодека : V_MPEG4/ISO/AVC
    Продолжительность : 2 ч. 58 м.
    Битрейт : 15,0 Мбит/сек
    Ширина : 1280 пикселей
    Высота : 720 пикселей
    Соотношение сторон : 16:9
    Режим частоты кадров : Постоянный
    Частота кадров : 95,904 кадров/сек
    Цветовое пространство : YUV
    Субдискретизация насыщенности : 4:2:0
    Битовая глубина : 8 бит
    Тип развёртки : Прогрессивная
    Бит/(Пиксели*Кадры) : 0.170
    Размер потока : 18,6 Гбайт (96%)
    Заголовок : Аватар (2009) 720p-120fps
    Библиотека кодирования : x264 core 152 r2851 ba24899
    Настройки программы : cabac=1 / ref=3 / deblock=1:-3:-3 / analyse=0x3:0x113 / me=hex / subme=8 / psy=1 / psy_rd=1.00:0.25 / mixed_ref=1 / me_range=16 / chroma_me=1 / trellis=1 / 8x8dct=1 / cqm=0 / deadzone=6,6 / fast_pskip=1 / chroma_qp_offset=-4 / threads=12 / lookahead_threads=2 / sliced_threads=0 / nr=0 / decimate=0 / interlaced=0 / bluray_compat=0 / constrained_intra=0 / bframes=3 / b_pyramid=2 / b_adapt=1 / b_bias=0 / direct=1 / weightb=1 / open_gop=0 / weightp=2 / keyint=959 / keyint_min=95 / scenecut=40 / intra_refresh=0 / rc_lookahead=40 / rc=2pass / mbtree=1 / bitrate=14999 / ratetol=1.0 / qcomp=0.80 / qpmin=0 / qpmax=69 / qpstep=4 / cplxblur=20.0 / qblur=0.5 / vbv_maxrate=62500 / vbv_bufsize=78125 / nal_hrd=none / filler=0 / ip_ratio=1.10 / aq=1:0.50
    Язык : Russian
    Default : Да
    Forced : Нет
    Аудио
    Идентификатор : 2
    Формат : AC-3
    Формат/Информация : Audio Coding 3
    Идентификатор кодека : A_AC3
    Продолжительность : 2 ч. 58 м.
    Вид битрейта : Постоянный
    Битрейт : 640 Кбит/сек
    Каналы : 6 каналов
    Расположение каналов : Front: L C R, Side: L R, LFE
    Частота : 48,0 КГц
    Частота кадров : 31,250 кадров/сек (1536 SPF)
    Битовая глубина : 16 бит
    Метод сжатия : С потерями
    Размер потока : 816 Мбайт (4%)
    Заголовок : ДУбляж
    Язык : Russian
    ServiceKind/String : Complete Main
    Default : Да
    Forced : Нет
    Аватар (2009) 720p-120fps.mkv.torrent
    Зарегистрирован 2018-10-05 17:59
    1013B7CD987D9291D945240CC559206E6264BEC2
    проверено
    14 раз
    0
    1 [1 MB/s]
    Похожие Темы
  2. Стаж:
    2 года 10 месяцев
    Сообщений:
    3
    Пол:
    Не указан
    На компе круто, но все равно монитор не то.... А вот телек не тянет :)
    06-Окт-2018 21:22 (спустя 1 день 3 часа)
  3. Стаж:
    2 года 9 месяцев
    Сообщений:
    3
    Пол:
    Не указан
    10313На компе круто, но все равно монитор не то.... А вот телек не тянет :)
    есть волшебное решение HDMI
    10-Окт-2018 19:07 (спустя 3 дня)
  4. Стаж:
    2 года 1 месяц
    Сообщений:
    620
    Пол:
    Мужской
    10330
    10313На компе круто, но все равно монитор не то.... А вот телек не тянет :)
    есть волшебное решение HDMI
    Не все HDMI кабеля могут передать такой видеопоток,а тем более не помоему очень мало телевизоры которые смогут принять,а тем более показать 120fps,именно по этому мы залили на сайт бесплатную версию Аватара в 120fps. Только так вы сможете проверить своё железо с помошью этого фильма !
    10-Окт-2018 21:59 (спустя 2 часа 51 минута)


Вы не можете начинать темы
Вы не можете отвечать на сообщения
Вы не можете редактировать свои сообщения
Вы не можете удалять свои сообщения
Вы не можете голосовать в опросах
Вы не можете прикреплять файлы к сообщениям
Вы можете скачивать файлы