[Цитировать]
HAwkey

Аватар / Avatar (2009) BDRip 1080p | 3D-Video | HOU | 60 fps- Информация о фильме
Название: Аватар
Оригинальное название: Avatar
Год выхода: 2009
Жанр: Фантастика, боевик, драма, приключения
Режиссер: Джеймс Кэмерон / James Cameron
В ролях: эм Уортингтон, Зои Салдана, Сигурни Уивер, Стивен Лэнг, Мишель Родригес, Джованни Рибизи, Джоэль Мур, Си Си Эйч Паундер, Уэс Студи, Лас Алонсо
О фильме: Джейк Салли — бывший морской пехотинец, прикованный к инвалидному креслу. Несмотря на немощное тело, Джейк в душе по-прежнему остается воином. Он получает задание совершить путешествие в несколько световых лет к базе землян на планете Пандора, где корпорации добывают редкий минерал, имеющий огромное значение для выхода Земли из энергетического кризиса.
Страна: США, Великобритания
Студия: 20th Century Fox
Продолжительность: 2:41:41
Перевод: Дублированный
Язык субтитров: Русские + на речь На'ви с лицензии
Вид субтитров: Вшитые

Файл
Формат: MKV
Кодек: V_MPEG4/ISO/AVC
Качество: 3D BDRip / 60 FPS
Видео: 1920 x 1080 pixels, 59.940 fps, 30.5 Mbps, 0.201 bpp, High@L4.1
Аудио: №1: AC3, 48000Hz, 6ch, 640 Kbps, rus
Аудио: №2: AC3, 48000Hz, 6ch, 640 Kbps, eng
Аудио: №3: DTS, 48000Hz, 6ch, 768 kbps, rus

MediaInfo

Видео
Идентификатор : 1
Формат : AVC
Формат/Информация : Advanced Video Codec
Профиль формата : High@L4.1
Параметр CABAC формата : Да
Параметр ReFrames формата : 4 кадра
Идентификатор кодека : V_MPEG4/ISO/AVC
Продолжительность : 2 ч. 41 м.
Битрейт : 25,0 Мбит/сек
Ширина : 1920 пикселей
Высота : 1080 пикселей
Соотношение сторон : 16:9
Режим частоты кадров : Постоянный
Частота кадров : 60,000 кадров/сек
Частота кадров в оригинале : 59,940 кадров/сек
Цветовое пространство : YUV
Субдискретизация насыщенности : 4:2:0
Битовая глубина : 8 бит
Тип развёртки : Прогрессивная
Бит/(Пиксели*Кадры) : 0.201
Размер потока : 27,9 Гбайт (90%)
Заголовок : 3D 60 FPS
Библиотека кодирования : x264 core 142 r2431 ac76440
Настройки программы : cabac=1 / ref=4 / deblock=1:0:0 / analyse=0x3:0x113 / me=hex / subme=7 / psy=1 / psy_rd=1.00:0.00 / mixed_ref=1 / me_range=16 / chroma_me=1 / trellis=1 / 8x8dct=1 / cqm=0 / deadzone=21,11 / fast_pskip=1 / chroma_qp_offset=-2 / threads=12 / lookahead_threads=2 / sliced_threads=0 / nr=0 / decimate=1 / interlaced=0 / bluray_compat=0 / constrained_intra=0 / bframes=3 / b_pyramid=2 / b_adapt=1 / b_bias=0 / direct=1 / weightb=1 / open_gop=0 / weightp=2 / keyint=599 / keyint_min=59 / scenecut=40 / intra_refresh=0 / rc_lookahead=40 / rc=abr / mbtree=1 / bitrate=25000 / ratetol=1.0 / qcomp=0.60 / qpmin=0 / qpmax=69 / qpstep=4 / vbv_maxrate=62500 / vbv_bufsize=78125 / nal_hrd=none / filler=0 / ip_ratio=1.40 / aq=1:1.00
Default : Да
Forced : Нет
Аудио #1
Идентификатор : 2
Формат : AC-3
Формат/Информация : Audio Coding 3
Расширение режима : CM (complete main)
Параметр Endianness формата : Big
Идентификатор кодека : A_AC3
Продолжительность : 2 ч. 41 м.
Вид битрейта : Постоянный
Битрейт : 640 Кбит/сек
Каналы : 6 каналов
Расположение каналов : Front: L C R, Side: L R, LFE
Частота : 48,0 КГц
Битовая глубина : 16 бит
Метод сжатия : С потерями
Размер потока : 740 Мбайт (2%)
Заголовок : DUB
Язык : Russian
Default : Да
Forced : Нет
Аудио #2
Идентификатор : 3
Формат : AC-3
Формат/Информация : Audio Coding 3
Расширение режима : CM (complete main)
Параметр Endianness формата : Big
Идентификатор кодека : A_AC3
Продолжительность : 2 ч. 41 м.
Вид битрейта : Постоянный
Битрейт : 640 Кбит/сек
Каналы : 6 каналов
Расположение каналов : Front: L C R, Side: L R, LFE
Частота : 48,0 КГц
Битовая глубина : 16 бит
Метод сжатия : С потерями
Размер потока : 740 Мбайт (2%)
Заголовок : ориг_AC3 5.1
Язык : English
Default : Нет
Forced : Нет
Аудио #3
Идентификатор : 4
Формат : DTS
Формат/Информация : Digital Theater Systems
Режим : 16
Параметр Endianness формата : Big
Идентификатор кодека : A_DTS
Продолжительность : 2 ч. 41 м.
Вид битрейта : Постоянный
Битрейт : 768 Кбит/сек
Каналы : 6 каналов
Расположение каналов : Front: L C R, Side: L R, LFE
Частота : 48,0 КГц
Битовая глубина : 24 бит
Метод сжатия : С потерями
Размер потока : 888 Мбайт (3%)
Заголовок : DTS_DUB
Язык : Russian
Default : Нет
Forced : Нет
Текст
Идентификатор : 5
Формат : UTF-8
Идентификатор кодека : S_TEXT/UTF8
Идентификатор кодека/Информация : UTF-8 Plain Text
Заголовок : на речь На'ви
Язык : Russian
Default : Нет
Forced : Нет

Скриншоты



Последний раз редактировалось: HAwkey (2015-01-17 21:49), всего редактировалось 1 раз

[Цитировать]
HAwkey

Проверено на встроенном плеере телевизора LG

[Цитировать]
Тимур Артыков

Блин, пожалуйста сделайте без 3d в следующий раз!

[Цитировать]
Kryl

1571Блин, пожалуйста сделайте без 3d в следующий раз!
https://60-fps.org/viewtopic.php?t=363

[Цитировать]
Тимур Артыков

KRYL, спасибо. Я раньше искал и не смог найти. Или ты только добавил?

[Цитировать]
Kryl

Только добавил ...

[Цитировать]
HAwkey

Другая ссылка на семпл http://sendfile.su/1075614

[Цитировать]
Goldzub17

А где скрины?

[Цитировать]
Kryl

4686А где скрины?
Кончились ))) Срок хранения истек .

[Цитировать]
Grig1982

Up
 
Показать сообщения:    

Текущее время: 03-Дек 16:45

Часовой пояс: UTC + 3


Вы не можете начинать темы
Вы не можете отвечать на сообщения
Вы не можете редактировать свои сообщения
Вы не можете удалять свои сообщения
Вы не можете голосовать в опросах
Вы не можете прикреплять файлы к сообщениям
Вы не можете скачивать файлы