Год выпуска: 2009
Жанр: Фантастика, Боевик, Драма
Производство: США, Великобритания
Описание фильма:
Джейк Салли — бывший морской пехотинец, прикованный к инвалидному креслу. Несмотря на немощное тело, Джейк в душе по-прежнему остается воином. Он получает задание совершить путешествие в несколько световых лет к базе землян на планете Пандора, где корпорации добывают редкий минерал, имеющий огромное значение для выхода Земли из энергетического кризиса.
Режиссер: Джеймс Кэмерон
Актеры: Сэм Уортингтон, Зои Салдана, Сигурни Уивер, Стивен Лэнг, Мишель Родригес, Джованни Рибизи, Джоэль Мур, Си Си Эйч Паундер, Уэс Стьюди, Лас Алонсо
Продолжительность: 02:58:09
Качество видео: BDRip
Перевод: Дублированный
Язык субтитров: Rus (форс.желт.), Rus (полные), Eng (форс.желт) Eng (полные)
Вид субтитров: Вшитые

Видеокодек: MPEG-4 AVC/H.264
Битрейт видео: ~13900 kb/s
Размер кадра: 1920*1080, 119,880 fps
Аудио 1 Русский: AC3 5.1, 640 kb/s
Аудио 2 Русский: AC3 5.1, 640 kb/s, Кубик в кубике
Аудио 3 Русский: AC3 5.1, 640 kb/s, Ю.Сербин
Аудио 4 Английский: AC3 5.1, 640 kb/s

Автор рипа: Tiberiumsun69

Дополнительная информация

В 5 раз больше кадров!
В 5 раз плавнее! (119.880 fps)
Проверено на windows media player, на ПК.Нагрузка на 8 ядер 35-30%.Для ощущения разницы между 60 и 120 fps воспроизводить на дисплее с частотой 75-120гц.Обладателям ЭЛТ монитора просьба отписаться о данном релизе.Так как во многих моделях можно в ручную выставлять высокие частоты вплодь до 120-160гц.
Приятного просмотра. =)

MI

Общее
Уникальный идентификатор : 242360632884342252061565537665796249960 (0xB654F5C3F409AFC2893C1E5CFB379968)
Полное имя : F:Аватар 1080p 120fps.mkv
Формат : Matroska
Версия формата : Version 4 / Version 2
Размер файла : 20,8 Гбайт
Продолжительность : 2 ч. 58 м.
Общий поток : 16,8 Мбит/сек
Дата кодирования : UTC 2014-07-17 09:13:09
Программа кодирования : mkvmerge v6.9.1 ('Blue Panther') 64bit built on Apr 18 2014 18:23:38
Библиотека кодирования : libebml v1.3.0 + libmatroska v1.4.1
Attachment : Yes / Yes / Yes / Yes / Yes / Yes / Yes / Yes / Yes
Видео
Идентификатор : 1
Формат : AVC
Формат/Информация : Advanced Video Codec
Профиль формата : High@L4.1
Параметр CABAC формата : Да
Параметр ReFrames формата : 4 кадра
Идентификатор кодека : V_MPEG4/ISO/AVC
Битрейт : 13,9 Мбит/сек
Ширина : 1920 пикселей
Высота : 1080 пикселей
Соотношение сторон : 16:9
Режим частоты кадров : Переменный
Частота кадров в оригинале : 119,880 кадров/сек
Цветовое пространство : YUV
Субдискретизация насыщенности : 4:2:0
Битовая глубина : 8 бит
Тип развёртки : Прогрессивная
Библиотека кодирования : x264 core 130 r2273 b3065e6
Настройки программы : cabac=1 / ref=4 / deblock=1:-1:-1 / analyse=0x3:0 / me=umh / subme=9 / psy=1 / psy_rd=1.00:0.10 / mixed_ref=1 / me_range=42 / chroma_me=0 / trellis=2 / 8x8dct=1 / cqm=0 / deadzone=21,11 / fast_pskip=0 / chroma_qp_offset=-3 / threads=12 / lookahead_threads=8 / sliced_threads=0 / nr=0 / decimate=0 / interlaced=0 / bluray_compat=0 / constrained_intra=0 / bframes=5 / b_pyramid=2 / b_adapt=2 / b_bias=0 / direct=1 / weightb=1 / open_gop=0 / weightp=2 / keyint=infinite / keyint_min=119 / scenecut=40 / intra_refresh=0 / rc=crf / mbtree=0 / crf=18.0 / qcomp=0.60 / qpmin=0 / qpmax=69 / qpstep=4 / ip_ratio=1.40 / pb_ratio=1.30 / aq=0
Язык : English
Default : Да
Forced : Нет
Аудио #1
Идентификатор : 2
Формат : AC-3
Формат/Информация : Audio Coding 3
Расширение режима : CM (complete main)
Параметр Endianness формата : Big
Идентификатор кодека : A_AC3
Продолжительность : 2 ч. 58 м.
Вид битрейта : Постоянный
Битрейт : 640 Кбит/сек
Каналы : 6 каналов
Расположение каналов : Front: L C R, Side: L R, LFE
Частота : 48,0 КГц
Битовая глубина : 16 бит
Метод сжатия : С потерями
Размер потока : 816 Мбайт (4%)
Заголовок : Dub
Язык : Russian
Default : Да
Forced : Нет
Аудио #2
Идентификатор : 3
Формат : AC-3
Формат/Информация : Audio Coding 3
Расширение режима : CM (complete main)
Параметр Endianness формата : Big
Идентификатор кодека : A_AC3
Продолжительность : 2 ч. 58 м.
Вид битрейта : Постоянный
Битрейт : 640 Кбит/сек
Каналы : 6 каналов
Расположение каналов : Front: L C R, Side: L R, LFE
Частота : 48,0 КГц
Битовая глубина : 16 бит
Метод сжатия : С потерями
Размер потока : 816 Мбайт (4%)
Заголовок : MVO (Kubik v kubike)
Язык : Russian
Default : Нет
Forced : Нет
Аудио #3
Идентификатор : 4
Формат : AC-3
Формат/Информация : Audio Coding 3
Расширение режима : CM (complete main)
Параметр Endianness формата : Big
Идентификатор кодека : A_AC3
Продолжительность : 2 ч. 58 м.
Вид битрейта : Постоянный
Битрейт : 640 Кбит/сек
Каналы : 6 каналов
Расположение каналов : Front: L C R, Side: L R, LFE
Частота : 48,0 КГц
Битовая глубина : 16 бит
Метод сжатия : С потерями
Размер потока : 816 Мбайт (4%)
Заголовок : AVO (Y.Serbin)
Язык : Russian
Default : Нет
Forced : Нет
Аудио #4
Идентификатор : 5
Формат : AC-3
Формат/Информация : Audio Coding 3
Расширение режима : CM (complete main)
Параметр Endianness формата : Big
Идентификатор кодека : A_AC3
Продолжительность : 2 ч. 58 м.
Вид битрейта : Постоянный
Битрейт : 640 Кбит/сек
Каналы : 6 каналов
Расположение каналов : Front: L C R, Side: L R, LFE
Частота : 48,0 КГц
Битовая глубина : 16 бит
Метод сжатия : С потерями
Размер потока : 816 Мбайт (4%)
Заголовок : Original
Язык : English
Default : Нет
Forced : Нет
Текст #1
Идентификатор : 6
Формат : UTF-8
Идентификатор кодека : S_TEXT/UTF8
Идентификатор кодека/Информация : UTF-8 Plain Text
Заголовок : Forced
Язык : Russian
Default : Да
Forced : Нет
Текст #2
Идентификатор : 7
Формат : UTF-8
Идентификатор кодека : S_TEXT/UTF8
Идентификатор кодека/Информация : UTF-8 Plain Text
Заголовок : Full
Язык : Russian
Default : Нет
Forced : Нет
Текст #3
Идентификатор : 8
Формат : UTF-8
Идентификатор кодека : S_TEXT/UTF8
Идентификатор кодека/Информация : UTF-8 Plain Text
Заголовок : forced
Язык : English
Default : Нет
Forced : Нет
Текст #4
Идентификатор : 9
Формат : UTF-8
Идентификатор кодека : S_TEXT/UTF8
Идентификатор кодека/Информация : UTF-8 Plain Text
Заголовок : full
Язык : English
Default : Нет
Forced : Нет
Меню
00:00:00.000 : en:01. Lost Soul
00:05:25.575 : en:02. A New World
00:10:12.278 : en:03. You Are Not In Kansas Anymore
00:11:47.916 : en:04. "This Is Your Avatar Now, Jake."
00:15:59.208 : en:05. "This Is Why We're Here..."
00:17:54.782 : en:06. First Awakening
00:23:54.892 : en:07. Colonel Quaritch
00:27:54.548 : en:08. First Sortie
00:30:27.617 : en:09. Abandoned Schoolhouse
00:32:27.904 : en:10. Thanator Chase
00:37:16.526 : en:11. A Sign
00:39:08.054 : en:12. Viperwolves
00:41:18.476 : en:13. Neytiri
00:49:16.912 : en:14. The Omaticaya Clan
00:55:42.214 : en:15. Cover Report
01:01:09.416 : en:16. The Hallelujah Mountains
01:07:03.228 : en:17. Learn Fast Or Die
01:11:50.223 : en:18. A Mother's Pain
01:15:53.799 : en:19. Banshee Rookery
01:22:38.120 : en:20. First Flight
01:26:12.709 : en:21. Clan Hunt
01:27:42.299 : en:22. Last Shadow
01:33:00.408 : en:23. A Son Of The Omaticaya
01:37:36.893 : en:24. Willow Glade Destruction
01:44:15.291 : en:25. Conflict Escalation
01:50:02.596 : en:26. "You Will Never Be One Of The People!"
01:51:53.582 : en:27. Assault On Hometree
01:58:30.895 : en:28. Aftermath
02:02:13.284 : en:29. Escape From Hell's Gate
02:07:51.664 : en:30. There's Something We Gotta Do..."
02:09:30.554 : en:31. Toruk Macto
02:12:36.615 : en:32. "She's Real"
02:16:03.364 : en:33. Recruiting The Clans
02:19:31.655 : en:34. Preamble To Battle
02:23:59.631 : en:35. Battle For Pandora
02:30:05.079 : en:36. Fall Of The Heroes
02:33:56.853 : en:37. Eywa
02:40:02.259 : en:38. Quaritch Fight
02:45:33.215 : en:39. "I See You"
02:46:48.498 : en:40. My Brother
02:48:56.793 : en:41. Transformation
02:51:32.073 : en:42. End Credits

Скриншоты

[Цитировать]
Anakim

Шедевр

[Цитировать]
foxyra

чтотоникто не пишет как качество , инет не супер быстрый по этому выбираю что качать

[Цитировать]
bodvov

Качаю. После отпишусь...

[Цитировать]
samrik

2272Качаю. После отпишусь...
Долго качаешь ! Отпишись!

[Цитировать]
Джери

Здорова как фильм залить на сайт?

[Цитировать]
Джери

Сколько ушло времени на рип Аватар 120 FPS???

[Цитировать]
kamikkadze

2931Здорова как фильм залить на сайт?
Заливаете фильм на сайт в этом разделе https://60-fps.org/viewforum.php?f=18 заполняете все по шаблону, далее модераторы проверяют раздачу, если ободряют, то пропускают в категорию фильмы.

[Цитировать]
ZHz

2932Сколько ушло времени на рип Аватар 120 FPS???
того кто это делал, давно нет, так что сколько времени ушло не могу сказать, да и железо у всех разное.

[Цитировать]
Джери

СПС понятно)

[Цитировать]
kapulsky

Спасибо!

[Цитировать]
kapulsky

Через media player classic звук пропадает(рывками). Через VLC постоянные подергивания. Windows Media вообще не открыл. Но все равно спасибо за релиз!!! Качество хорошее!

[Цитировать]
константин Орлов

На телевизоре 4К тормозит.... Плачу

[Цитировать]
Kryl

7224На телевизоре 4К тормозит.... Плачу
Это эксперимент был )))
Размер кадра: 1920*1080, 119,880 fps
Два варианта :
Флешка или диск на котором файл лежит , не справляются с выгрузкой .
Встроенный плеер телека не справляется с 119,880 fps

[Цитировать]
pocket virys

Прекрасное качество. Говорю спасибо. Улыбаюсь
Ничего не тормозит через Media Player на FullHD . все ок. Заметил не большие подергивания в сцене посадки самолета на Пандору. Это все других проблем не было. Улыбаюсь
 
Показать сообщения:    

Текущее время: 19-Окт 19:08

Часовой пояс: UTC + 3


Вы не можете начинать темы
Вы не можете отвечать на сообщения
Вы не можете редактировать свои сообщения
Вы не можете удалять свои сообщения
Вы не можете голосовать в опросах
Вы не можете прикреплять файлы к сообщениям
Вы не можете скачивать файлы