«Настоящая матрица - это авалон»-- Информация о фильме
Название: Авалон
Оригинальное название: Avalon
Год выхода: 2001
Жанр: фантастика, фэнтези, боевик, триллер, драма
Режиссер: Мамору Осии
Сценарий: Кадзунори Ито
В ролях: Мальгорзата Форемняк, Владислав Ковальски, Джерзи Гудешко, Дариуш Бискупски, Бартек Свидерски и др
----О фильме:
В отдаленном будущем человечество осваивает виртуальный мир компьютерной игры под названием «Авалон». Лишь немногим удается достичь в игре финального уровня, а те, кто возвращаются с него, впадают в коматозное состояние, почти не отличающееся от смерти.- - Страна: Япония, Польша
Продолжительность: 01:47:24
--Файл
Кодек: MPEG4/ISO/AVC H.264
Формат: MKV
Качество: BDRip
Видео:
1920x1040 (16:9) | 59.940 fps | 14.4 Мбит/сек-- Аудио 1: AC3 | 5.1 | 48 kHz | 448 kbps | 16 bit |Двухголосый, закадровый CP-Digital|
Аудио 2: AC3 | 5.1 | 48 kHz | 384 kbps | 16 bit |Двухголосый, закадровый 1|
Аудио 3: AC3 | 5.1 | 48 kHz | 384 kbps | 16 bit |Двухголосый, закадровый 2|
Аудио 4: AC3 | 5.1 | 48 kHz | 640 kbps | 16 bit |Польский|

MedifInfo

Video
ID : 1
Формат : AVC
Формат/Info : Advanced Video Кодек
Формат profile : High@L4.1
Формат настройки, CABAC : Yes
Формат настройки, ReFrames : 4 frames
Кодек ID : V_MPEG4/ISO/AVC
Длительность : 1h 47mn
Битрейт : 14.4 Mbps
Width : 1 920 пикселей
Высота : 1 040 пикселей
Соотношение кадра : 16:9
Частота кадров : 59.940 fps
Цветопередача : YUV
Chroma subsampling : 4:2:0
Разрядность : 8 bits
Тип сканирования : Progressive
Bits/(Pixel*Frame) : 0.120
Размер потока : 10.5 GiB (87%)
Title : R.G. HD-Films by Tiberiumsun69 60fps
Writing library : x264 core 142 r2491 24e4fed
Encoding настройки : cabac=1 / ref=4 / deblock=1:-1:-1 / analyse=0x3:0 / me=umh / subme=10 / psy=1 / psy_rd=1.00:0.00 / mixed_ref=1 / me_range=32 / chroma_me=0 / trellis=2 / 8x8dct=1 / cqm=0 / deadzone=21,11 / fast_pskip=1 / chroma_qp_offset=-2 / threads=12 / lookahead_threads=1 / sliced_threads=0 / nr=0 / decimate=1 / interlaced=0 / bluray_compat=0 / constrained_intra=0 / bframes=5 / b_pyramid=2 / b_adapt=2 / b_bias=0 / direct=3 / weightb=1 / open_gop=0 / weightp=2 / keyint=250 / keyint_min=59 / scenecut=40 / intra_refresh=0 / rc=2pass / mbtree=0 / bitrate=14400 / ratetol=1.0 / qcomp=0.80 / qpmin=0 / qpmax=69 / qpstep=4 / cplxblur=20.0 / qblur=0.5 / ip_ratio=1.40 / pb_ratio=1.30 / aq=1:1.00
Язык : English
Default : Yes
Forced : No
Audio #1
ID : 2
Формат : AC-3
Формат/Info : Audio Coding 3
Расширение режима : CM (complete main)
Кодек ID : A_AC3
Длительность : 1h 47mn
Битрейт mode : Constant
Битрейт : 448 Kbps
Каналы(s) : 6 каналов
Каналы positions : Front: L C R, Side: L R, LFE
Частота : 48.0 KHz
Разрядность : 16 bits
Режим сжатия : Lossy
Размер потока : 344 MiB (3%)
Title : Двухголосый, закадровый CP-Digital
Язык : Russian
Default : Yes
Forced : No
Audio #2
ID : 3
Формат : AC-3
Формат/Info : Audio Coding 3
Расширение режима : CM (complete main)
Кодек ID : A_AC3
Длительность : 1h 47mn
Битрейт mode : Constant
Битрейт : 384 Kbps
Каналы(s) : 6 каналов
Каналы positions : Front: L C R, Side: L R, LFE
Частота : 48.0 KHz
Разрядность : 16 bits
Режим сжатия : Lossy
Размер потока : 295 MiB (2%)
Title : Двухголосый, закадровый 1
Язык : Russian
Default : No
Forced : No
Audio #3
ID : 4
Формат : AC-3
Формат/Info : Audio Coding 3
Расширение режима : CM (complete main)
Кодек ID : A_AC3
Длительность : 1h 47mn
Битрейт mode : Constant
Битрейт : 384 Kbps
Каналы(s) : 6 каналов
Каналы positions : Front: L C R, Side: L R, LFE
Частота : 48.0 KHz
Разрядность : 16 bits
Режим сжатия : Lossy
Размер потока : 295 MiB (2%)
Title : Двухголосый, закадровый 2
Язык : Russian
Default : No
Forced : No
Audio #4
ID : 5
Формат : AC-3
Формат/Info : Audio Coding 3
Расширение режима : CM (complete main)
Кодек ID : A_AC3
Длительность : 1h 47mn
Битрейт mode : Constant
Битрейт : 640 Kbps
Каналы(s) : 6 каналов
Каналы positions : Front: L C R, Side: L R, LFE
Частота : 48.0 KHz
Разрядность : 16 bits
Режим сжатия : Lossy
Размер потока : 492 MiB (4%)
Title : Оригинал
Язык : Polish
Default : No
Forced : No
Text
ID : 6
Формат : ASS
Кодек ID : S_TEXT/ASS
Кодек ID/Info : Advanced Sub Station Alpha
Режим сжатия : Lossless
Title : Полные
Язык : Russian
Default : No
Forced : No
Menu
00:00:21.000 : 00:00:21.000
00:10:52.464 : 00:10:52.464
00:18:22.121 : 00:18:22.121
00:23:59.916 : 00:23:59.916
00:28:01.700 : 00:28:01.700
00:33:32.531 : 00:33:32.531
00:39:43.360 : 00:39:43.360
00:43:51.482 : 00:43:51.482
00:48:50.740 : 00:48:50.740
00:54:27.910 : 00:54:27.910
01:00:20.137 : 01:00:20.137
01:07:44.247 : 01:07:44.247
01:16:25.278 : 01:16:25.278
01:21:02.503 : 01:21:02.503
01:28:28.156 : 01:28:28.156
01:39:09.923 : 01:39:09.923
автора рипа Tiberiumsun69

[Цитировать]
Гость

KRYL :aa: :ay: :good: :thank_you:
 
Показать сообщения:    

Текущее время: 05-Дек 01:22

Часовой пояс: UTC + 3


Вы не можете начинать темы
Вы не можете отвечать на сообщения
Вы не можете редактировать свои сообщения
Вы не можете удалять свои сообщения
Вы не можете голосовать в опросах
Вы не можете прикреплять файлы к сообщениям
Вы не можете скачивать файлы