[Цитировать]
mimok

Астрал: Глава 2 / Insidious: Chapter 2 (2013) BDRip 1080p | 60fps«Он вернулся за тобой»- Информация о фильме
Название: Астрал: Глава 2
Оригинальное название: Insidious: Chapter 2
Год выхода: 2013
Жанр: Ужасы, триллер
Режиссер: Джеймс Ван
В ролях: Патрик Уилсон, Роуз Бирн, Барбара Херши, Стив Култер, Тай Симпкинс, Ли Уоннелл, Энгус Сэмпсон, Лин Шэй, Линдсэй Сейм, Джоселин Донахью...
Описание фильма:
Семья Ламберт стремится раскрыть тайну, из-за которой они оказались в опасной связи с миром духов. Семейство переезжает в дом матери Джоша, но, как оказывается, туда вселяются не только они. Путешествие в мир призраков не прошло для семьи Ламберт бесследно — вместе с Джошем в мир людей проник дух, который вновь хочет быть живым. И вскоре в доме снова начинают происходить странные и страшные вещи.
Страна: США, Канада
Студия: Alliance Films, Blumhouse Productions, Room 101
Продолжительность: 01:45:52
Перевод: Дублированный (Лицензия)

Дата мировой премьеры: 13 сентября 2013
Дата российской премьеры: 3 октября 2013, «WDSSPR»
Дата выхода DVD релиза: 28 января 2014, «Columbia/Sony»
Дата выхода Blu-Ray релиза: 28 января 2014, «Columbia/Sony»
Файл
Формат: MKV
Кодек: MPEG-4 AVC/H.264
Качество: BDRip 1080p
Видео: ~ 5244 Кбит/сек, 1920 x 808, 59.940 кадров/сек
Аудио: AC3 5.1, 48.0 KHz, 448 Кбит/сек - Русский

MediaInfo

Общее
Уникальный идентификатор : 205455519949997159648514147050287126245 (0x9A914B3734DF72CA96C902636E2DD6E5)
Полное имя : D:\Торренты\Insidious Chapter 2 60fps.mkv
Формат : Matroska
Версия формата : Version 2
Размер файла : 4,29 Гбайт
Продолжительность : 1 ч. 45 м.
Общий поток : 5808 Кбит/сек
Название фильма : Insidious Chapter 2 (2013) 1080p BluRay
Дата кодирования : UTC 2015-01-20 16:20:49
Программа кодирования : mkvmerge v6.9.1 ('Blue Panther') 64bit built on Apr 18 2014 18:23:38
Библиотека кодирования : libebml v1.3.0 + libmatroska v1.4.1
Видео
Идентификатор : 1
Формат : AVC
Формат/Информация : Advanced Video Codec
Профиль формата : High@L4.2
Параметр CABAC формата : Да
Параметр ReFrames формата : 4 кадра
Идентификатор кодека : V_MPEG4/ISO/AVC
Продолжительность : 1 ч. 45 м.
Битрейт : 5244 Кбит/сек
Ширина : 1920 пикселей
Высота : 808 пикселей
Соотношение сторон : 2,40:1
Режим частоты кадров : Постоянный
Частота кадров : 59,880 кадров/сек
Частота кадров в оригинале : 59,940 кадров/сек
Цветовое пространство : YUV
Субдискретизация насыщенности : 4:2:0
Битовая глубина : 8 бит
Тип развёртки : Прогрессивная
Бит/(Пиксели*Кадры) : 0.056
Размер потока : 3,88 Гбайт (90%)
Заголовок : Rip by zologne
Библиотека кодирования : x264 core 138 r2358 9e941d1
Настройки программы : cabac=1 / ref=3 / deblock=1:0:0 / analyse=0x3:0x113 / me=hex / subme=7 / psy=1 / psy_rd=1.00:0.00 / mixed_ref=1 / me_range=16 / chroma_me=1 / trellis=1 / 8x8dct=1 / cqm=0 / deadzone=21,11 / fast_pskip=1 / chroma_qp_offset=-2 / threads=6 / lookahead_threads=1 / sliced_threads=0 / nr=0 / decimate=1 / interlaced=0 / bluray_compat=0 / constrained_intra=0 / bframes=3 / b_pyramid=2 / b_adapt=1 / b_bias=0 / direct=1 / weightb=1 / open_gop=0 / weightp=2 / keyint=599 / keyint_min=59 / scenecut=40 / intra_refresh=0 / rc_lookahead=40 / rc=crf / mbtree=1 / crf=16.0 / qcomp=0.60 / qpmin=10 / qpmax=51 / qpstep=4 / ip_ratio=1.40 / aq=1:1.00
Язык : English
Default : Да
Forced : Нет
Аудио
Идентификатор : 2
Формат : AC-3
Формат/Информация : Audio Coding 3
Расширение режима : CM (complete main)
Параметр Endianness формата : Big
Идентификатор кодека : A_AC3
Продолжительность : 1 ч. 45 м.
Вид битрейта : Постоянный
Битрейт : 448 Кбит/сек
Каналы : 6 каналов
Расположение каналов : Front: L C R, Side: L R, LFE
Частота : 48,0 КГц
Битовая глубина : 16 бит
Метод сжатия : С потерями
Размер потока : 339 Мбайт (8%)
Заголовок : Dub
Язык : Russian
Default : Да
Forced : Нет
Текст #1
Идентификатор : 3
Формат : UTF-8
Идентификатор кодека : S_TEXT/UTF8
Идентификатор кодека/Информация : UTF-8 Plain Text
Заголовок : Full
Язык : Russian
Default : Да
Forced : Нет
Текст #2
Идентификатор : 4
Формат : UTF-8
Идентификатор кодека : S_TEXT/UTF8
Идентификатор кодека/Информация : UTF-8 Plain Text
Заголовок : Full
Язык : English
Default : Нет
Forced : Нет

Скринлист

Скриншоты:
Автор рипа - zologne

[Цитировать]
Владимир 1965

Спасибо заценим. А 1 часть будет?

[Цитировать]
mimok

нет, т.к. рип не я делал. А первой части у этого рипера нет

[Цитировать]
Kryl

1627нет, т.к. рип не я делал. А первой части у этого рипера нет
Так сделайте )

[Цитировать]
mimok

1628
1627нет, т.к. рип не я делал. А первой части у этого рипера нет
Так сделайте )
Так нет вдохновения. :whistle: Уже просили раньше две части сделать

[Цитировать]
GREXXXXXXX

братаны станьте на раздачу 76 процеков скачал

[Цитировать]
Kryl

3164братаны станьте на раздачу 76 процеков скачал
Автор пропал :ac:
Появиться раздаст ...

[Цитировать]
GREXXXXXXX

крутобэл, надеюсь не надолго ушел товарищ

[Цитировать]
GREXXXXXXX

заранее спасибо челу который раздаст кинчик

[Цитировать]
mimok

не смогу раздать, т.к. нет этого фильма у меня.
 
Показать сообщения:    

Текущее время: 05-Дек 01:21

Часовой пояс: UTC + 3


Вы не можете начинать темы
Вы не можете отвечать на сообщения
Вы не можете редактировать свои сообщения
Вы не можете удалять свои сообщения
Вы не можете голосовать в опросах
Вы не можете прикреплять файлы к сообщениям
Вы не можете скачивать файлы