Стражи Галактики. Часть 2 / Guardians of the Galaxy Vol. 2 (2017) BDRip 1080p | 60 fps Первому игроку приготовиться / Ready Player One (2018) BDRip 1080p | 60 fps Дэдпул / Deadpool (2016) BDRip 1080p | 60 fps Аватар / Avatar (2009) BDRip 1080p | 60 fps Рэмпейдж / Rampage (2018) BDRip 1080p | 60 fps Доктор Стрэндж / Doctor Strange (2016) BDRip 1080p | 60 fps Гарри Поттер: Коллекция / Harry Potter: Collection (2001-2011) BDRip-AVC | 60 fps Валериан и город тысячи планет / Valerian and the City of a Thousand Planets (2017) BDRip 1080p | 60 fps
  1. Стаж:
    3 года 11 месяцев
    Сообщений:
    2404
    Пол:
    Мужской
    «Я иду искать...» Информация
    Название: Астрал 4: Последний ключ
    Оригинальное название: Insidious: The Last Key
    Год выхода: 2017
    Жанр: Ужасы, триллер, детектив
    Режиссер: Адам Робител
    Сценарий: Ли Уоннелл
    Продюсер: Лаура Альтман, Джейсон Блум
    В ролях: Кирк Асеведо, Спенсер Лок, Джош Стюарт, Лин Шэй, Энгус Сэмпсон, Хавьер Ботет, Брюс Дэвисон, Хана Хэйес, Ли Уоннелл, Кейтлин Джерард

    Сюжет:
    В центре сюжета снова окажется история блестящего парапсихолога-экстрасенса Элис Райнер (Лин Шэй), противостоящей демонам в пограничной области Астрала. Бесстрашный медиум продолжает раз за разом ввязываться в борьбу за человеческие души с ужасающими духами, в надежде привести мир к спокойному и привычному существованию. Однако теперь в жизнь воплощается её самый страшный кошмар: сущности из потустороннего мира проникают в дом в Нью-Мексико, где в детстве жила сама Элис.

    Страна: США, Канада
    Продолжительность: 01:43:24

    Файл
    Кодек: H.264
    Формат: MKV
    Качество: BDRip 720p | 60 fps
    Видео: 1280 x 536 (2.388) | 59.940 fps | 7.0 Мбит/сек
    Аудио 01: AC3 | 5.1 | 48 kHz | 384 kbps | 16 bit | Дубляж - iTunes |
    Аудио 02: AC3 | 5.1 | 48 kHz | 448 kbps | 16 bit | english |
    Субтитры: Русские (forced, full), украинские (full), английские

    MedifInfo

    Видео
    Идентификатор : 1
    Формат : AVC
    Формат/Информация : Advanced Video Codec
    Профиль формата : High@L4.1
    Параметр CABAC формата : Да
    Параметр ReFrames формата : 3 кадра
    Идентификатор кодека : V_MPEG4/ISO/AVC
    Продолжительность : 1 ч. 43 м.
    Вид битрейта : Переменный
    Битрейт : 6829 Кбит/сек
    Максимальный битрейт : 7000 Кбит/сек
    Ширина : 1280 пикселей
    Высота : 536 пикселей
    Соотношение сторон : 2,40:1
    Режим частоты кадров : Постоянный
    Частота кадров : 59,880 кадров/сек
    Частота кадров в оригинале : 59,940 кадров/сек
    Стандарт вещания : PAL
    Цветовое пространство : YUV
    Субдискретизация насыщенности : 4:2:0
    Битовая глубина : 8 бит
    Тип развёртки : Прогрессивная
    Бит/(Пиксели*Кадры) : 0.166
    Размер потока : 4,93 Гбайт (87%)
    Заголовок : www.60-fps.org
    Язык : English
    Default : Да
    Forced : Нет
    Основные цвета : BT.601 NTSC
    Характеристики трансфера : BT.601
    Коэффициенты матрицы : BT.601
    colour_range : Limited
    Аудио #1
    Идентификатор : 2
    Формат : AC-3
    Формат/Информация : Audio Coding 3
    Расширение режима : CM (complete main)
    Параметр Endianness формата : Big
    Идентификатор кодека : A_AC3
    Продолжительность : 1 ч. 43 м.
    Вид битрейта : Постоянный
    Битрейт : 384 Кбит/сек
    Каналы : 6 каналов
    Расположение каналов : Front: L C R, Side: L R, LFE
    Частота : 48,0 КГц
    Битовая глубина : 16 бит
    Метод сжатия : С потерями
    Размер потока : 284 Мбайт (5%)
    Заголовок : ДУбляж - iTunes
    Язык : Russian
    Default : Да
    Forced : Нет
    Аудио #2
    Идентификатор : 3
    Формат : AC-3
    Формат/Информация : Audio Coding 3
    Расширение режима : CM (complete main)
    Параметр Endianness формата : Big
    Идентификатор кодека : A_AC3
    Продолжительность : 1 ч. 43 м.
    Вид битрейта : Постоянный
    Битрейт : 448 Кбит/сек
    Каналы : 6 каналов
    Расположение каналов : Front: L C R, Side: L R, LFE
    Частота : 48,0 КГц
    Битовая глубина : 16 бит
    Метод сжатия : С потерями
    Размер потока : 331 Мбайт (6%)
    Заголовок : english
    Язык : English
    Default : Нет
    Forced : Нет
    Текст #1
    Идентификатор : 4
    Формат : UTF-8
    Идентификатор кодека : S_TEXT/UTF8
    Идентификатор кодека/Информация : UTF-8 Plain Text
    Заголовок : Forced
    Язык : Russian
    Default : Да
    Forced : Да
    Текст #2
    Идентификатор : 5
    Формат : UTF-8
    Идентификатор кодека : S_TEXT/UTF8
    Идентификатор кодека/Информация : UTF-8 Plain Text
    Заголовок : Full
    Язык : Russian
    Default : Нет
    Forced : Нет
    Текст #3
    Идентификатор : 6
    Формат : UTF-8
    Идентификатор кодека : S_TEXT/UTF8
    Идентификатор кодека/Информация : UTF-8 Plain Text
    Заголовок : Full
    Язык : Ukrainian
    Default : Нет
    Forced : Нет
    Текст #4
    Идентификатор : 7
    Формат : UTF-8
    Идентификатор кодека : S_TEXT/UTF8
    Идентификатор кодека/Информация : UTF-8 Plain Text
    Заголовок : Full
    Язык : English
    Default : Нет
    Forced : Нет
    Меню
    00:00:00.000 : en:00:00:00.000
    00:16:21.397 : en:00:16:21.397
    00:19:55.111 : en:00:19:55.111
    00:22:29.056 : en:00:22:29.056
    00:29:03.617 : en:00:29:03.617
    00:36:24.307 : en:00:36:24.307
    00:44:05.685 : en:00:44:05.685
    00:54:14.168 : en:00:54:14.168
    00:57:21.855 : en:00:57:21.855
    01:02:08.183 : en:01:02:08.183
    01:05:17.664 : en:01:05:17.664
    01:10:17.964 : en:01:10:17.964
    01:16:58.239 : en:01:16:58.239
    01:22:11.593 : en:01:22:11.593
    01:29:49.467 : en:01:29:49.467
    01:34:34.252 : en:01:34:34.252

    Релиз подготовлен 60 - fps



Вы не можете начинать темы
Вы не можете отвечать на сообщения
Вы не можете редактировать свои сообщения
Вы не можете удалять свои сообщения
Вы не можете голосовать в опросах
Вы не можете прикреплять файлы к сообщениям
Вы не можете скачивать файлы