BLACKPINK | WEBRip 1080p | 60 fps Depeche Mode - Live Spirits (2020) BDRip 1080p | 60 fps NIKITA - ВДЫХАЙ (2015) Full HD 1080p | 60 fps Depeche Mode - Heaven (2013) HD 720p | 60 fps Ленинград - Экспонат (2016) Full HD 1080p | 60 fps Music Video Collection / The best Guitars 2,5 (2016) BDRip 1080p | 60 fps Lady Gaga - Judas (2011) Full HD 1080p | 60 fps Shakira - Chantaje ft. Maluma (2016) Full HD 1080p | 60 fps
  1. Longevity:
    6 years
    Posts:
    2419
    Gender:
    Male
    -Armin van Buuren ft. Sharon den Adel - In and Out of Love (2008) Full HD 1080p | 60 fps- -Информация о Клипе
    Исполнитель: Armin van Buuren ft. Sharon den Adel
    Название: In and Out of Love
    Год выхода: 2008
    Продолжительность: 00:03:00-Файл
    Кодек: MPEG4/ISO/AVC/ H.264
    Формат: MKV
    Качество: Full HD 1080p | 60 fps
    Видео : 1920 x 816 (2.353) at 60.000 fps 15.0Мбит/сек
    Аудио : MP3 | 320 Кбит/сек | 44.1 KHz | 2.0 channels

    MI

    Общее
    Уникальный идентификатор : 237675516733195615977292616851257703226 (0xB2CEA3B476DE20F49F33703264863B3A)
    Полное имя : H:\Clips\Armin van Buuren ft. Sharon den Adel - In and Out of Love_60fps.mkv
    Формат : Matroska
    Версия формата : Version 2
    Размер файла : 326 Мбайт
    Продолжительность : 3 м. 0 с.
    Режим общего битрейта : Переменный
    Общий поток : 15,2 Мбит/сек
    Название фильма : Armin van Buuren ft. Sharon den Adel - In and Out of Love (www.60-fps.org)
    Дата кодирования : UTC 2020-10-16 05:33:12
    Программа кодирования : mkvmerge v7.8.0 ('River Man') 32bit built on Apr 3 2015 12:11:22
    Библиотека кодирования : libebml v1.3.1 + libmatroska v1.4.2
    Видео
    Идентификатор : 1
    Формат : AVC
    Формат/Информация : Advanced Video Codec
    Профиль формата : High@L4.2
    Параметр CABAC формата : Да
    Параметр ReFrames формата : 3 кадра
    Идентификатор кодека : V_MPEG4/ISO/AVC
    Продолжительность : 3 м. 0 с.
    Вид битрейта : Переменный
    Битрейт : 14,6 Мбит/сек
    Максимальный битрейт : 15,0 Мбит/сек
    Ширина : 1920 пикселей
    Высота : 816 пикселей
    Соотношение сторон : 2,35:1
    Режим частоты кадров : Постоянный
    Частота кадров : 60,000 кадров/сек
    Стандарт вещания : PAL
    Цветовое пространство : YUV
    Субдискретизация насыщенности : 4:2:0
    Битовая глубина : 8 бит
    Тип развёртки : Прогрессивная
    Бит/(Пиксели*Кадры) : 0.155
    Размер потока : 313 Мбайт (96%)
    Заголовок : www.60-fps.org
    Язык : English
    Default : Да
    Forced : Нет
    Цветовой диапазон : Limited
    Основные цвета : BT.709
    Характеристики трансфера : BT.709
    Коэффициенты матрицы : BT.709
    Аудио
    Идентификатор : 2
    Формат : MPEG Audio
    Версия формата : Version 1
    Профиль формата : Layer 3
    Идентификатор кодека : A_MPEG/L3
    Идентификатор кодека/Подсказка : MP3
    Продолжительность : 3 м. 0 с.
    Вид битрейта : Постоянный
    Битрейт : 320 Кбит/сек
    Каналы : 2 канала
    Частота : 44,1 КГц
    Метод сжатия : С потерями
    Размер потока : 6,87 Мбайт (2%)
    Библиотека кодирования : LAME3.99r
    Настройки программы : -m s -V 4 -q 0 -lowpass 20.5
    Default : Да
    Forced : Нет

    Release was prepared by 60 - fps

  2. Longevity:
    4 years 2 months
    Posts:
    1550
    Gender:
    Male
    ОБНОВИЛИ РАЗДАЧУ !
    16-Oct-2020 14:13 (after 4 years 10 months)


You cannot post new topics in this forum
You cannot reply to topics in this forum
You cannot edit your posts in this forum
You cannot delete your posts in this forum
You cannot vote in polls in this forum
You cannot attach files in this forum
You cannot download files in this forum