[Цитировать]
Kryl

-Ariana Grande The Weeknd - Love Me Harder (2014) Master | ProRes --Информация о Клипе
Исполнитель: Ariana Grande The Weeknd
Название: Love Me Harder
Год выхода: 2014
Продолжительность: 00:04:21-Описание:
В этой песне Ариана Гранде заявляет, что её возлюбленный, если он хочет сделать её счастливой (да и вообще хочет остаться с ней), «должен любить её более жёстко»-Файл
Кодек: APCH
Контейнер: MOV
Формат: ProRes
Качество: Master
Видео: 1888 x 1062 (1.778) | 23.976 fps | 154 Мбит/сек
Аудио: PCM | 1536 Кбит/сек | 2.0 канала, 48.0 КГц

MI

Формат : MPEG-4
Профиль формата : QuickTime
Идентификатор кодека : qt
Размер файла : 4,72 Гбайт
Продолжительность : 4 м. 21 с.
Режим общего битрейта : Переменный
Общий поток : 155 Мбит/сек
Дата кодирования : UTC 2014-10-28 03:28:57
Дата пометки : UTC 2014-10-28 03:29:41
Библиотека кодирования : Apple QuickTime
Media/UUID : D2C7C7C9-3278-4AE5-84C0-89B3FE2816DD
Видео
Идентификатор : 1
Формат : ProRes
Версия формата : Version 0
Профиль формата : High
Идентификатор кодека : apch
Продолжительность : 4 м. 21 с.
Вид битрейта : Переменный
Битрейт : 154 Мбит/сек
Ширина : 1888 пикселей
Ширина оригинала : 1920 пикселей
Высота : 1062 пикселя
Высота оригинала : 1080 пикселей
Соотношение сторон : 16:9
Режим частоты кадров : Постоянный
Частота кадров : 23,976 кадра/сек
Цветовое пространство : YUV
Субдискретизация насыщенности : 4:2:2
Тип развёртки : Прогрессивная
Бит/(Пиксели*Кадры) : 3.198
Размер потока : 4,67 Гбайт (99%)
Библиотека кодирования : Apple
Язык : English
Дата кодирования : UTC 2014-10-28 03:28:57
Дата пометки : UTC 2014-10-28 03:29:41
Основные цвета : BT.709
Характеристики трансфера : BT.709
Коэффициенты матрицы : BT.709
Аудио
Идентификатор : 2
Формат : PCM
Параметр Endianness формата : Little
Параметр Sign формата : Signed
Идентификатор кодека : sowt
Продолжительность : 4 м. 21 с.
Вид битрейта : Постоянный
Битрейт : 1536 Кбит/сек
Каналы : 2 канала
Расположение каналов : Front: L R
Частота : 48,0 КГц
Битовая глубина : 16 бит
Размер потока : 47,8 Мбайт (1%)
Язык : English
Дата кодирования : UTC 2014-10-28 03:28:57
Дата пометки : UTC 2014-10-28 03:29:41
Прочее
Идентификатор : 3
Тип : Time code
Формат : QuickTime TC
Продолжительность : 4 м. 21 с.
Временной код первого кадра : 01:00:00:00
TimeCode_Striped/String : Да
Язык : English
Дата кодирования : UTC 2014-10-28 03:29:41
Дата пометки : UTC 2014-10-28 03:29:41

Релиз подготовлен 60 - fps

 
Показать сообщения:    

Текущее время: 19-Окт 04:38

Часовой пояс: UTC + 3


Вы не можете начинать темы
Вы не можете отвечать на сообщения
Вы не можете редактировать свои сообщения
Вы не можете удалять свои сообщения
Вы не можете голосовать в опросах
Вы не можете прикреплять файлы к сообщениям
Вы не можете скачивать файлы