[Цитировать]
Kryl

-Ariana Grande feat. John Legend - Beauty And The Beast (2017) Full HD 1080p | 60 fps
OST Beauty And The Beast
- -Информация о Клипе
Исполнитель: Ariana Grande feat. John Legend
Название: Beauty And The Beast
Год выхода: 2017
Продолжительность: 00:04:02

Описание:
Гармоничный дуэт двух талантливых артистов - очаровательной Ariana Grande и харизматичного John Legend. Столь прекрасное объединение профессионалов в сфере музыки состоялось для записи сингла и съемок видеоклипа на главный саундтрек к фильму 2017 года "Красавица и чудовище". 100%-ный классический популярный стиль для кино, рассчитанного на семейный просмотр. Режиссером клипа выступил Dave Meyers. Ранее он создавал самые яркие видео для Britney Spears, Enrique Iglesias, Pink, Missy Elliott, Jennifer Lopez, Janet Jackson и многих других звезд современной музыкальной сцены.
-Файл
Кодек: MPEG4 | ISO/AVC/H.264
Формат: MKV
Качество: Full HD 1080p | 60 fps
Видео : 1920 x 800 (2.400) | 59.940 fps | 15.0 Мбит/сек
Аудио : DTS | 1413 Кбит/сек | 48.0 KHz | 2.0 channels

MediaInfo

Видео
Идентификатор : 1
Формат : AVC
Формат/Информация : Advanced Video Codec
Профиль формата : High@L4.1
Параметр CABAC формата : Да
Параметр ReFrames формата : 5 кадров
Идентификатор кодека : V_MPEG4/ISO/AVC
Продолжительность : 4 м. 2 с.
Битрейт : 15,0 Мбит/сек
Ширина : 1920 пикселей
Высота : 800 пикселей
Соотношение сторон : 2,40:1
Режим частоты кадров : Постоянный
Частота кадров : 59,880 кадров/сек
Частота кадров в оригинале : 59,940 кадров/сек
Цветовое пространство : YUV
Субдискретизация насыщенности : 4:2:0
Битовая глубина : 8 бит
Тип развёртки : Прогрессивная
Бит/(Пиксели*Кадры) : 0.163
Размер потока : 425 Мбайт (89%)
Заголовок : www.60-fps.org
Библиотека кодирования : x264 core 148 r2638 7599210
Настройки программы : cabac=1 / ref=5 / deblock=1:-3:-3 / analyse=0x3:0x113 / me=umh / subme=8 / psy=1 / psy_rd=1.00:0.25 / mixed_ref=1 / me_range=32 / chroma_me=1 / trellis=1 / 8x8dct=1 / cqm=0 / deadzone=6,6 / fast_pskip=1 / chroma_qp_offset=-4 / threads=12 / lookahead_threads=2 / sliced_threads=0 / nr=0 / decimate=0 / interlaced=0 / bluray_compat=0 / constrained_intra=0 / bframes=3 / b_pyramid=2 / b_adapt=2 / b_bias=0 / direct=3 / weightb=1 / open_gop=0 / weightp=2 / keyint=599 / keyint_min=59 / scenecut=40 / intra_refresh=0 / rc_lookahead=50 / rc=2pass / mbtree=1 / bitrate=14999 / ratetol=1.0 / qcomp=0.80 / qpmin=0 / qpmax=69 / qpstep=4 / cplxblur=20.0 / qblur=0.5 / vbv_maxrate=62500 / vbv_bufsize=78125 / nal_hrd=none / filler=0 / ip_ratio=1.10 / aq=1:0.50
Default : Да
Forced : Нет
Аудио
Идентификатор : 2
Формат : DTS
Формат/Информация : Digital Theater Systems
Режим : 16
Параметр Endianness формата : Big
Идентификатор кодека : A_DTS
Продолжительность : 4 м. 2 с.
Вид битрейта : Постоянный
Битрейт : 1413 Кбит/сек
Каналы : 2 канала
Расположение каналов : Front: L R
Частота : 48,0 КГц
Битовая глубина : 16 бит
Метод сжатия : С потерями
Задержка видео : 83 мс.
Размер потока : 40,8 Мбайт (9%)
Язык : English
Default : Да
Forced : Нет
DURATION : 00:04:02.304000000
NUMBER_OF_FRAMES : 22716
NUMBER_OF_BYTES : 42796944
_STATISTICS_WRITING_APP : mkvmerge v7.6.0 ('Garden of Dreams') 32bit built on Feb 8 2015 12:51:39
_STATISTICS_WRITING_DATE_UTC : 2017-04-08 06:14:00
_STATISTICS_TAGS : BPS DURATION NUMBER_OF_FRAMES NUMBER_OF_BYTES

Релиз подготовлен 60 - fps

[Цитировать]
Savage

У многих клипов нет информации о происхождении, WEBRip или BDRip. Сомневаюсь

[Цитировать]
Kryl

7800У многих клипов нет информации о происхождении, WEBRip или BDRip. Сомневаюсь
По факту web и bdrip указаны , остальные это рипы с master ....

[Цитировать]
sergei

Спасибо ..
 
Показать сообщения:    

Текущее время: 18-Окт 14:04

Часовой пояс: UTC + 3


Вы не можете начинать темы
Вы не можете отвечать на сообщения
Вы не можете редактировать свои сообщения
Вы не можете удалять свои сообщения
Вы не можете голосовать в опросах
Вы не можете прикреплять файлы к сообщениям
Вы не можете скачивать файлы