Jennifer Lopez ft. Iggy Azalea - Booty (2014) Full HD 1080p | 60 fps Britney Spears - ...Baby One More Time (2009) Full HD 1080p | 60 fps Nicki Minaj - Anaconda (2014) BDRip 1080p | 60 fps Rammstein (БЕЗ ЦЕНЗУРЫ)| WEBRip 1080p | 60 fps The Prodigy - Live World's On Fire (2011) Blu-Ray 1080p | 72 fps Britney Spears - Oops! I Did It Again Uncut (2009) HD 1080p | 60 fps Depeche Mode - Live Spirits (2020) BDRip 1080p | 60 fps Philizz - Video Yearmix (2019) Full HD 1080p | 60 fps
  1. Longevity:
    6 years 4 months
    Posts:
    2414
    Gender:
    Male
    --ARASH feat Helena - Broken Angel (2008) WEBRip 1080p | 60fps --Информация о Клипе
    Исполнитель: ARASH feat Helena
    Название: Broken Angel
    Год выхода: 2008
    Продолжительность: 00:03:22-Файл
    Кодек: MPEG4/ISO/AVC/ H.264
    Формат: MKV
    Качество: WEBRip 1080p
    Видео: 1920 x 960 (2,000) at 60.000 fps at 15 mb/s
    Аудио 1: AC3 at 640 Кбит/сек | 2 канала, 44,1 КГц

    MI

    Общее
    Уникальный идентификатор : 195525609781712608654272642277810038414 (0x9318DCD86BB14B9EB06519473516E68E)
    Полное имя : H:\Clips\ARASH feat Helena- Broken Angel.60fps.mkv
    Формат : Matroska
    Версия формата : Version 2
    Размер файла : 379 Мбайт
    Продолжительность : 3 м. 22 с.
    Общий поток : 15,7 Мбит/сек
    Название фильма : ARASH feat Helena - Broken Angel https://60-fps.org/
    Дата кодирования : UTC 2020-12-02 12:08:10
    Программа кодирования : mkvmerge v5.8.0 ('No Sleep / Pillow') built on Sep 2 2012 15:37:04
    Библиотека кодирования : libebml v1.2.3 + libmatroska v1.3.0
    Attachments : Poster.jpg
    Видео
    Идентификатор : 1
    Формат : AVC
    Формат/Информация : Advanced Video Codec
    Профиль формата : [email protected]
    Параметр CABAC формата : Да
    Параметр ReFrames формата : 4 кадра
    Режим смешивания : Header stripping
    Идентификатор кодека : V_MPEG4/ISO/AVC
    Продолжительность : 3 м. 22 с.
    Битрейт : 15,0 Мбит/сек
    Ширина : 1920 пикселей
    Высота : 960 пикселей
    Соотношение сторон : 2,000
    Режим частоты кадров : Постоянный
    Частота кадров : 60,000 кадров/сек
    Цветовое пространство : YUV
    Субдискретизация насыщенности : 4:2:0
    Битовая глубина : 8 бит
    Тип развёртки : Прогрессивная
    Бит/(Пиксели*Кадры) : 0.136
    Размер потока : 356 Мбайт (94%)
    Библиотека кодирования : x264 core 146 r2538 121396c
    Настройки программы : cabac=1 / ref=4 / deblock=1:-1:-1 / analyse=0x3:0x113 / me=hex / subme=8 / psy=1 / psy_rd=1.00:0.15 / mixed_ref=1 / me_range=16 / chroma_me=1 / trellis=1 / 8x8dct=1 / cqm=0 / deadzone=21,11 / fast_pskip=1 / chroma_qp_offset=-3 / threads=12 / lookahead_threads=3 / sliced_threads=0 / nr=0 / decimate=1 / interlaced=0 / bluray_compat=0 / constrained_intra=0 / bframes=3 / b_pyramid=2 / b_adapt=2 / b_bias=0 / direct=3 / weightb=1 / open_gop=0 / weightp=2 / keyint=599 / keyint_min=59 / scenecut=40 / intra_refresh=0 / rc_lookahead=40 / rc=2pass / mbtree=1 / bitrate=15000 / ratetol=1.0 / qcomp=0.60 / qpmin=0 / qpmax=69 / qpstep=4 / cplxblur=20.0 / qblur=0.5 / vbv_maxrate=50000 / vbv_bufsize=50000 / nal_hrd=none / filler=0 / ip_ratio=1.40 / aq=1:1.00
    Default : Да
    Forced : Нет
    Аудио
    Идентификатор : 2
    Формат : AC-3
    Формат/Информация : Audio Coding 3
    Расширение режима : CM (complete main)
    Параметр Endianness формата : Big
    Режим смешивания : Header stripping
    Идентификатор кодека : A_AC3
    Продолжительность : 3 м. 22 с.
    Вид битрейта : Постоянный
    Битрейт : 640 Кбит/сек
    Каналы : 2 канала
    Расположение каналов : Front: L R
    Частота : 44,1 КГц
    Частота кадров : 28,711 кадров/сек (1536 spf)
    Битовая глубина : 16 бит
    Метод сжатия : С потерями
    Размер потока : 15,5 Мбайт (4%)
    Default : Да
    Forced : Нет

    Release was prepared by 60-fps.org

  2. Longevity:
    5 years 7 months
    Posts:
    2
    Gender:
    Unknown
    Можно пожалуйста раздачу активировать? Не качается.
    Сайт очень хороший, спасибо вам. Очень люблю 60 fps. Хочу скачать все клипы,что у вас есть.
    01-Aug-2015 18:43 (after 9 months 5 days)
  3. Longevity:
    6 years 4 months
    Posts:
    2414
    Gender:
    Male
    3382Можно пожалуйста раздачу активировать? Не качается.
    Сайт очень хороший, спасибо вам. Очень люблю 60 fps. Хочу скачать все клипы,что у вас есть.
    Все сразу не получиться ... так как раздавать все одновременно нет возможности ..
    01-Aug-2015 19:19 (after 36 minutes)
  4. Longevity:
    6 years 1 month
    Posts:
    283
    Gender:
    Male
    3382Можно пожалуйста раздачу активировать? Не качается.
    Сайт очень хороший, спасибо вам. Очень люблю 60 fps. Хочу скачать все клипы,что у вас есть.
    Главное не только скачать, но и поддерживать раздачи)
    01-Aug-2015 21:05 (after 1 hour 45 minutes)
  5. Longevity:
    5 years 11 months
    Posts:
    13
    Gender:
    Unknown
    Можно пожалуйста раздачу активировать? Не качается.Можно пожалуйста раздачу активировать? Не качается.
    30-Dec-2015 13:59 (after 4 months 28 days)
  6. Longevity:
    3 years 11 months
    Posts:
    9
    Gender:
    Male
    Kryl, Активируйте, пожалуйста, раздачу!
    06-Sep-2017 19:54 (after 1 year 8 months)
  7. Longevity:
    1 year 11 months
    Posts:
    16
    Gender:
    Unknown
    А можно как-то раздачу активировать, уж очень клип нравится
    12-Mar-2019 21:40 (after 1 year 6 months)
  8. Longevity:
    4 years 6 months
    Posts:
    1576
    Gender:
    Male
    10664А можно как-то раздачу активировать, уж очень клип нравится
    скорее всего уже не как...
    у меня на сервере клипов нет,а этот клип делал не я...
    так что приношу свои извинения !
    12-Mar-2019 23:09 (after 1 hour 29 minutes)
  9. Longevity:
    1 year 11 months
    Posts:
    16
    Gender:
    Unknown
    плохо
    19-Mar-2019 00:07 (after 6 days)
  10. Longevity:
    4 years 1 month
    Posts:
    162
    Gender:
    Male
    Торрент обновлен. Скачавших просьба обновить!!!
    Torrent updated. Downloaded please update !!!
    02-Dec-2020 15:15 (after 1 year 8 months)


You cannot post new topics in this forum
You cannot reply to topics in this forum
You cannot edit your posts in this forum
You cannot delete your posts in this forum
You cannot vote in polls in this forum
You cannot attach files in this forum
You cannot download files in this forum