[Цитировать]
Kryl

«The Horror… The Horror…»- Информация
Название: Апокалипсис сегодня
Оригинальное название: Apocalypse Now
Год выхода: 1979
Жанр: драма, военный
Режиссер: Френсис Форд Коппола
Сценарий: Джон Милиус, Френсис Форд Коппола, Майкл Херр
Продюсер: Джон Эшли, Ким Обри, Френсис Форд Коппола
В ролях: Марлон Брандо, Мартин Шин, Роберт Дювалл, Фредерик Форрест, Сэм Боттомс, Лоренс Фишбёрн, Альберт Холл, Харрисон Форд, Деннис Хоппер, Г.Д. Спрэдлин
--Сюжет:
Во время войны во Вьетнаме спецагент отправляется вверх по реке в Камбоджу с приказом найти и убить полусумасшедшего полковника, создавшего в отдаленном районе нечто вроде собственного королевства насилия. По пути мы видим почти сюрреалистический мир ужасов войны.- Страна: США
Продолжительность: 03:16:09

Файл
Кодек: MPEG4/ISO/AVC H.264
Формат: MKV
Качество: BDRip 1080p | 60 fps
Видео: 1920 x 816 (2.353) | 59.940 fps | 20.0 Мбит/сек
Аудио 1: AC3 | 5.1 | 48 kHz | 384 kbps | 16 bits | Профессиональный многоголосый закадровый - СОЮЗ Видео |
Аудио 2: AC3 | 5.1 | 48 kHz | 448 kbps | 16 bits | Профессиональный многоголосый закадровый - Киномания |
Аудио 3: AC3 | 5.1 | 48 kHz | 384 kbps | 16 bits | Профессиональный многоголосый закадровый - Позитив |
Аудио 4: DTS-HD | 5.1 | 48 kHz | 4454 kbps | 24 bits (DTS Core: 5.1, 48 KHz, 24bit, 1536 kbps) | Авторский одноголосый - Дмитрий Пучков * (Гоблин) |
Аудио 5: DTS-HD | 5.1 | 48 kHz | 4482 kbps | 24 bits (DTS Core: 5.1, 48 KHz, 24bit, 1536 kbps) | Eng |
Аудио 6: AC3 | 2.0 | 48 kHz | 224 kbps | 16 bits | comments of the Director |
Субтитры: Русские (СОЮЗ Видео), Eng
* - дорожка сделана наложением чистого голоса на центральный канал английского DTS-HD (в переводе присутствует ненормативная лексика)

MedifInfo

Видео
Идентификатор : 1
Формат : AVC
Формат/Информация : Advanced Video Codec
Профиль формата : High@L4.1
Параметр CABAC формата : Да
Параметр ReFrames формата : 5 кадров
Идентификатор кодека : V_MPEG4/ISO/AVC
Продолжительность : 3 ч. 16 м.
Номинальный битрейт : 20,0 Мбит/сек
Ширина : 1920 пикселей
Высота : 816 пикселей
Соотношение сторон : 2,35:1
Режим частоты кадров : Постоянный
Частота кадров : 59,880 кадров/сек
Частота кадров в оригинале : 59,940 кадров/сек
Цветовое пространство : YUV
Субдискретизация насыщенности : 4:2:0
Битовая глубина : 8 бит
Тип развёртки : Прогрессивная
Бит/(Пиксели*Кадры) : 0.213
Заголовок : www.60-fps.org
Библиотека кодирования : x264 core 148 r2638 7599210
Настройки программы : cabac=1 / ref=5 / deblock=1:-2:-2 / analyse=0x3:0x113 / me=umh / subme=8 / psy=1 / psy_rd=1.00:0.25 / mixed_ref=1 / me_range=32 / chroma_me=1 / trellis=1 / 8x8dct=1 / cqm=0 / deadzone=6,6 / fast_pskip=1 / chroma_qp_offset=-4 / threads=12 / lookahead_threads=2 / sliced_threads=0 / nr=0 / decimate=0 / interlaced=0 / bluray_compat=0 / constrained_intra=0 / bframes=3 / b_pyramid=2 / b_adapt=2 / b_bias=0 / direct=3 / weightb=1 / open_gop=0 / weightp=2 / keyint=599 / keyint_min=59 / scenecut=40 / intra_refresh=0 / rc_lookahead=50 / rc=2pass / mbtree=1 / bitrate=19999 / ratetol=1.0 / qcomp=0.80 / qpmin=0 / qpmax=69 / qpstep=4 / cplxblur=20.0 / qblur=0.5 / vbv_maxrate=62500 / vbv_bufsize=78125 / nal_hrd=none / filler=0 / ip_ratio=1.10 / aq=1:0.50
Default : Да
Forced : Нет
Аудио #1
Идентификатор : 2
Формат : AC-3
Формат/Информация : Audio Coding 3
Расширение режима : CM (complete main)
Параметр Endianness формата : Big
Идентификатор кодека : A_AC3
Продолжительность : 3 ч. 16 м.
Вид битрейта : Постоянный
Битрейт : 384 Кбит/сек
Каналы : 6 каналов
Расположение каналов : Front: L C R, Side: L R, LFE
Частота : 48,0 КГц
Битовая глубина : 16 бит
Метод сжатия : С потерями
Размер потока : 539 Мбайт (1%)
Заголовок : MVO Soyuz (License) AC3 5.1 384 kbps
Язык : Russian
Default : Да
Forced : Нет
Аудио #2
Идентификатор : 3
Формат : AC-3
Формат/Информация : Audio Coding 3
Расширение режима : CM (complete main)
Параметр Endianness формата : Big
Идентификатор кодека : A_AC3
Продолжительность : 3 ч. 16 м.
Вид битрейта : Постоянный
Битрейт : 448 Кбит/сек
Каналы : 6 каналов
Расположение каналов : Front: L C R, Side: L R, LFE
Частота : 48,0 КГц
Битовая глубина : 16 бит
Метод сжатия : С потерями
Размер потока : 629 Мбайт (1%)
Заголовок : MVO Kinomania AC3 5.1 448 kbps
Язык : Russian
Default : Нет
Forced : Нет
Аудио #3
Идентификатор : 4
Формат : AC-3
Формат/Информация : Audio Coding 3
Расширение режима : CM (complete main)
Параметр Endianness формата : Big
Идентификатор кодека : A_AC3
Продолжительность : 3 ч. 16 м.
Вид битрейта : Постоянный
Битрейт : 384 Кбит/сек
Каналы : 6 каналов
Расположение каналов : Front: L C R, Side: L R, LFE
Частота : 48,0 КГц
Битовая глубина : 16 бит
Метод сжатия : С потерями
Размер потока : 539 Мбайт (1%)
Заголовок : MVO Positive AC3 5.1 384 kbps
Язык : Russian
Default : Нет
Forced : Нет
Аудио #4
Идентификатор : 5
Формат : DTS
Формат/Информация : Digital Theater Systems
Профиль формата : MA / Core
Режим : 16
Параметр Endianness формата : Big
Идентификатор кодека : A_DTS
Продолжительность : 3 ч. 16 м.
Вид битрейта : Переменный
Битрейт : Неизвестно / 1509 Кбит/сек
Каналы : 6 каналов
Расположение каналов : Front: L C R, Side: L R, LFE
Частота : 48,0 КГц
Битовая глубина : 24 бит
Метод сжатия : Без потерь / Lossy
Заголовок : AVO Goblin DTS-HD Master Audio, 5.1, 4454 kbps, 24 bit, Lossless (1536 kbps core)
Язык : Russian
Default : Нет
Forced : Нет
Аудио #5
Идентификатор : 6
Формат : DTS
Формат/Информация : Digital Theater Systems
Профиль формата : MA / Core
Режим : 16
Параметр Endianness формата : Big
Идентификатор кодека : A_DTS
Продолжительность : 3 ч. 16 м.
Вид битрейта : Переменный
Битрейт : Неизвестно / 1509 Кбит/сек
Каналы : 6 каналов
Расположение каналов : Front: L C R, Side: L R, LFE
Частота : 48,0 КГц
Битовая глубина : 24 бит
Метод сжатия : Без потерь / Lossy
Заголовок : DTS-HD Master Audio, 5.1, 4482 kbps, 24 bit, Lossless (1536 kbps core)
Язык : English
Default : Нет
Forced : Нет
Аудио #6
Идентификатор : 7
Формат : AC-3
Формат/Информация : Audio Coding 3
Профиль формата : Dolby Digital
Расширение режима : CM (complete main)
Параметр Endianness формата : Big
Идентификатор кодека : A_AC3
Продолжительность : 3 ч. 16 м.
Вид битрейта : Постоянный
Битрейт : 224 Кбит/сек
Каналы : 2 канала
Расположение каналов : Front: L R
Частота : 48,0 КГц
Битовая глубина : 16 бит
Метод сжатия : С потерями
Размер потока : 314 Мбайт (1%)
Заголовок : Commentary with Director Francis Ford Coppola AC3 2.0 224 kbps
Язык : English
Default : Нет
Forced : Нет
Текст #1
Идентификатор : 8
Формат : UTF-8
Идентификатор кодека : S_TEXT/UTF8
Идентификатор кодека/Информация : UTF-8 Plain Text
Заголовок : Soyuz (License)
Язык : Russian
Default : Нет
Forced : Нет
Текст #2
Идентификатор : 9
Формат : UTF-8
Идентификатор кодека : S_TEXT/UTF8
Идентификатор кодека/Информация : UTF-8 Plain Text
Язык : English
Default : Нет
Forced : Нет
Текст #3
Идентификатор : 10
Формат : UTF-8
Идентификатор кодека : S_TEXT/UTF8
Идентификатор кодека/Информация : UTF-8 Plain Text
Заголовок : SDH
Язык : English
Default : Нет
Forced : Нет
Меню
00:00:00.000 : en:1. Waiting in Saigon
00:09:25.273 : en:2. Intelligence Compound
00:20:24.432 : en:3. Willard Meets PBR Crew
00:24:10.866 : en:4. Search and Destroy
00:31:15.123 : en:5. Beach Party
00:34:11.383 : en:6. Helicopter Attack
00:45:03.034 : en:7. Col. Kilgore Goes Surfing
00:52:05.664 : en:8. The Tiger in the Jungle
01:03:27.762 : en:9. Entertaining the Boys
01:17:10.751 : en:10. Kurtz Dossier
01:34:19.404 : en:11. Sampan Massacre
01:39:37.763 : en:12. Do Lung Bridge
01:49:20.721 : en:13. Mr. Clean's Death
01:55:02.771 : en:14. Arrow Attack
02:27:41.102 : en:15. Kurtz Compound
02:36:25.668 : en:16. Interrogation
02:45:19.868 : en:17. Chef Decapitated
03:03:10.563 : en:18. Caribou Sacrifice
03:10:11.025 : en:19. Ending

Релиз подготовлен 60 - fps

[Цитировать]
psychoward

whats redux version? Удивляюсь

[Цитировать]
Kryl

6293whats redux version? Удивляюсь
This is a version 40 minutes longer than usual .
updated version and not the Director

[Цитировать]
djon3volta

Сообщение появиться после проверки модератором
 
Показать сообщения:    

Текущее время: 09-Дек 22:17

Часовой пояс: UTC + 3


Вы не можете начинать темы
Вы не можете отвечать на сообщения
Вы не можете редактировать свои сообщения
Вы не можете удалять свои сообщения
Вы не можете голосовать в опросах
Вы не можете прикреплять файлы к сообщениям
Вы не можете скачивать файлы