[Цитировать]
kamikkadze

AOA - Oh BOY (2015) HDTVRip 1080p | 60 fps

Информация о Клипе:
Исполнители: AOA
Название: Oh BOY
Год выпуска: 2015 г.
Жанр: Pop
Продолжительность: 00:04:24

Файл:
Формат видео: MKV
Качество видео: HDTVRip 1080p | 60 fps
Видео кодек: H.264
Аудио кодек: AC3
Видео: 1440x808 | 60,000 fps | 13,5 Мбит/сек
Аудио: AC3 | 2 channels | 48 kHz | 384 Кбит/сек

Автор Рипа:

MediaInfo

Продолжительность : 4 м. 24 с.
Общий поток : 13,5 Мбит/сек
Название фильма : AOA - Oh BOY « R.G 60-FPS Rip By Kamikkadze »
Дата кодирования : UTC 2015-11-03 15:54:03
Программа кодирования : mkvmerge v8.5.1 ('Where you lead I will follow') 64bit
Библиотека кодирования : libebml v1.3.3 + libmatroska v1.4.4
DURATION : 00:04:24.544000000
NUMBER_OF_FRAMES : 8267
NUMBER_OF_BYTES : 12698112
_STATISTICS_WRITING_APP : mkvmerge v8.5.1 ('Where you lead I will follow') 64bit
_STATISTICS_WRITING_DATE_UTC : 2015-11-03 15:54:03
_STATISTICS_TAGS : BPS DURATION NUMBER_OF_FRAMES NUMBER_OF_BYTES
Видео
Идентификатор : 1
Формат : AVC
Формат/Информация : Advanced Video Codec
Профиль формата : High@L4.1
Параметр CABAC формата : Да
Параметр ReFrames формата : 4 кадра
Идентификатор кодека : V_MPEG4/ISO/AVC
Продолжительность : 4 м. 24 с.
Битрейт : 13,2 Мбит/сек
Ширина : 1440 пикселей
Высота : 808 пикселей
Соотношение сторон : 16:9
Режим частоты кадров : Постоянный
Частота кадров : 60,000 кадров/сек
Цветовое пространство : YUV
Субдискретизация насыщенности : 4:2:0
Битовая глубина : 8 бит
Тип развёртки : Прогрессивная
Бит/(Пиксели*Кадры) : 0.189
Размер потока : 405 Мбайт (95%)
Заголовок : AOA - Oh BOY « R.G 60-FPS Rip By Kamikkadze »
Библиотека кодирования : x264 core 146 r2538 121396c
Настройки программы : cabac=1 / ref=3 / deblock=1:-3:3 / analyse=0x3:0x113 / me=umh / subme=9 / psy=1 / psy_rd=1.00:0.20 / mixed_ref=1 / me_range=32 / chroma_me=1 / trellis=2 / 8x8dct=1 / cqm=0 / deadzone=21,11 / fast_pskip=0 / chroma_qp_offset=-3 / threads=6 / lookahead_threads=1 / sliced_threads=0 / nr=0 / decimate=1 / interlaced=0 / bluray_compat=0 / constrained_intra=0 / bframes=16 / b_pyramid=2 / b_adapt=2 / b_bias=0 / direct=1 / weightb=1 / open_gop=0 / weightp=2 / keyint=250 / keyint_min=25 / scenecut=40 / intra_refresh=0 / rc_lookahead=40 / rc=abr / mbtree=0 / bitrate=13160 / ratetol=1.0 / qcomp=0.60 / qpmin=0 / qpmax=69 / qpstep=4 / vbv_maxrate=50000 / vbv_bufsize=62500 / nal_hrd=none / filler=0 / ip_ratio=1.40 / pb_ratio=1.30 / aq=1:1.00
Default : Да
Forced : Нет
Аудио
Идентификатор : 2
Формат : AC-3
Формат/Информация : Audio Coding 3
Расширение режима : CM (complete main)
Параметр Endianness формата : Big
Идентификатор кодека : A_AC3
Продолжительность : 4 м. 24 с.
Вид битрейта : Постоянный
Битрейт : 384 Кбит/сек
Каналы : 2 канала
Расположение каналов : Front: L R
Частота : 48,0 КГц
Метод сжатия : С потерями
Размер потока : 12,1 Мбайт (3%)
Default : Да
Forced : Нет
Просьба к переливающим на другие сайты, в оформлении указывайте пожалуйста авторство рипа - Kamikkadze

Релиз подготовлен 60 - fps

[Цитировать]
sergei

Спасибо .
 
Показать сообщения:    

Текущее время: 05-Дек 05:26

Часовой пояс: UTC + 3


Вы не можете начинать темы
Вы не можете отвечать на сообщения
Вы не можете редактировать свои сообщения
Вы не можете удалять свои сообщения
Вы не можете голосовать в опросах
Вы не можете прикреплять файлы к сообщениям
Вы не можете скачивать файлы