[Цитировать]
Kryl

Антиганг / Antigang (2015) BDRip 720p | 60 fps- Информация
Название: Антиганг / Отряд
Оригинальное название: Antigang
Год выхода: 2015
Жанр: боевик, драма
Режиссер: Бенжамен Роше
Сценарий: Тристан Шулманн, Джон Ходж, Франсуа Лубэр
Продюсер: Henri Debeurme, Тьерри Демишель, Аллан Нибло
В ролях: Жан Рено, Элбан Ленуар, Катерина Мурино, Умар Диау, Стефи Сельма, Себастьен ЛаЛэйнн, Тьерри Нёвик, Жан-Туссен Бернард, Якоб Седергрен
--Сюжет:
Бывалый коп Бюрен не любит правила. Чтобы держать под жестким контролем преступный мир, его боевая группа предпочитает использовать методы, выходящие за рамки закона. С приходом нового босса Ленуара им приходится немного поумерить пыл, и действовать подпольно.
Попытка остановить ограбление банка оборачивается кровавой баней и ожесточенной перестрелкой прямо на улицах Парижа, за что Бюрена отстраняют от службы. Осознав, что налет был лишь началом гораздо большей преступной операции, коп решает действовать.
- Страна: Великобритания, Франция
Продолжительность: 01:32:43

Файл
Кодек: MPEG4/ISO/AVC H.264
Формат: MKV
Качество: BDRip 720p | 60 fps
Видео: 1280 x 534 (2.397) | 60.000 fps | 8.0 Мбит/сек
Аудио: AC3 | 5.1 | 48 kHz | 640 kbps | 16 bit | Любительское (многоголосное) [Студия "Paradox & Omskbird records"] |
Аудио: AC3 | 5.1 | 48 kHz | 640 kbps | 16 bit | French / Франция

MedifInfo

Видео
Идентификатор : 1
Формат : AVC
Формат/Информация : Advanced Video Codec
Профиль формата : High@L4.1
Параметр CABAC формата : Да
Параметр ReFrames формата : 3 кадра
Идентификатор кодека : V_MPEG4/ISO/AVC
Продолжительность : 1 ч. 32 м.
Вид битрейта : Переменный
Битрейт : 7609 Кбит/сек
Максимальный битрейт : 8000 Кбит/сек
Ширина : 1280 пикселей
Высота : 534 пикселя
Соотношение сторон : 2,40:1
Режим частоты кадров : Постоянный
Частота кадров : 60,000 кадров/сек
Стандарт вещания : PAL
Цветовое пространство : YUV
Субдискретизация насыщенности : 4:2:0
Битовая глубина : 8 бит
Тип развёртки : Прогрессивная
Бит/(Пиксели*Кадры) : 0.186
Размер потока : 4,93 Гбайт (84%)
Заголовок : www.60-fps.org
Язык : English
Default : Да
Forced : Нет
Основные цвета : BT.601 NTSC
Характеристики трансфера : BT.601
Коэффициенты матрицы : BT.601
colour_range : Limited
Аудио #1
Идентификатор : 2
Формат : AC-3
Формат/Информация : Audio Coding 3
Расширение режима : CM (complete main)
Параметр Endianness формата : Big
Идентификатор кодека : A_AC3
Продолжительность : 1 ч. 32 м.
Вид битрейта : Постоянный
Битрейт : 640 Кбит/сек
Каналы : 6 каналов
Расположение каналов : Front: L C R, Side: L R, LFE
Частота : 48,0 КГц
Битовая глубина : 16 бит
Метод сжатия : С потерями
Размер потока : 424 Мбайт (7%)
Заголовок : Paradox & Omskbird records
Язык : Russian
Default : Да
Forced : Нет
Аудио #2
Идентификатор : 3
Формат : AC-3
Формат/Информация : Audio Coding 3
Расширение режима : CM (complete main)
Параметр Endianness формата : Big
Идентификатор кодека : A_AC3
Продолжительность : 1 ч. 32 м.
Вид битрейта : Постоянный
Битрейт : 640 Кбит/сек
Каналы : 6 каналов
Расположение каналов : Front: L C R, Side: L R, LFE
Частота : 48,0 КГц
Битовая глубина : 16 бит
Метод сжатия : С потерями
Размер потока : 424 Мбайт (7%)
Заголовок : French
Язык : French
Default : Нет
Forced : Нет
Меню
00:00:00.000 : en:Chapter 1
00:09:31.583 : en:Chapter 2
00:15:51.333 : en:Chapter 3
00:22:25.708 : en:Chapter 4
00:29:54.333 : en:Chapter 5
00:36:30.208 : en:Chapter 6
00:43:29.791 : en:Chapter 7
00:50:36.708 : en:Chapter 8
00:57:26.500 : en:Chapter 9
01:04:12.333 : en:Chapter 10
01:14:01.833 : en:Chapter 11
01:21:59.625 : en:Chapter 12

Релиз подготовлен 60 - fps

[Цитировать]
mimok

Последний скрин не вписывается в общую картину ))) исправьте)))
 
Показать сообщения:    

Текущее время: 02-Дек 21:10

Часовой пояс: UTC + 3


Вы не можете начинать темы
Вы не можете отвечать на сообщения
Вы не можете редактировать свои сообщения
Вы не можете удалять свои сообщения
Вы не можете голосовать в опросах
Вы не можете прикреплять файлы к сообщениям
Вы не можете скачивать файлы