[Цитировать]
Kryl

Аномализа / Anomalisa (2015) BDRip 720p | 60 fps- Информация
Название: Аномализа
Оригинальное название: Anomalisa
Год выхода: 2015
Жанр: Мультфильм, полнометражный, драма, комедия
Режиссер: Дьюк Джонсон, Чарли Кауфман
Продюсер: Чарли Кауфман
Персонажей озвучивали: Рон Аллен, Джордж Бэббит, Лайла Берзиньш, Илька Бессин, Джои Камен, Джефф Дусетте, Сэнди Фокс
--Сюжет:
Майкл Стоун, автор книг по обслуживанию клиентов, страдает от неспособности контактировать с людьми. Однажды, в ходе очередной рабочей поездки, он встречает незнакомку, которая меняет его мировосприятие.- Страна: США
Продолжительность: 01:30:36

Файл
Кодек: MPEG4/ISO/AVC H.264
Формат: MKV
Качество: BDRip 720p | 60 fps
Видео: 1280 x 534 (2.397) | 59.940 fps | 8.0 Мбит/сек
Аудио 1: AC3 | 5.1 | 48 kHz | 640 kbps | 16 bit | Дубляж |
Аудио 2: AC3 | 5.1 | 48 kHz | 640 kbps | 16 bit | GER |
Субтитры: Russian, Eng

MedifInfo

Видео
Идентификатор : 1
Формат : AVC
Формат/Информация : Advanced Video Codec
Профиль формата : High@L4.1
Параметр CABAC формата : Да
Параметр ReFrames формата : 3 кадра
Идентификатор кодека : V_MPEG4/ISO/AVC
Продолжительность : 1 ч. 30 м.
Вид битрейта : Переменный
Битрейт : 7599 Кбит/сек
Максимальный битрейт : 8000 Кбит/сек
Ширина : 1280 пикселей
Высота : 534 пикселя
Соотношение сторон : 2,40:1
Режим частоты кадров : Постоянный
Частота кадров : 59,880 кадров/сек
Частота кадров в оригинале : 59,940 кадров/сек
Стандарт вещания : NTSC
Цветовое пространство : YUV
Субдискретизация насыщенности : 4:2:0
Битовая глубина : 8 бит
Тип развёртки : Прогрессивная
Бит/(Пиксели*Кадры) : 0.186
Размер потока : 4,81 Гбайт (84%)
Заголовок : www.60-fps.org
Язык : English
Default : Да
Forced : Нет
Основные цвета : BT.601 NTSC
Характеристики трансфера : BT.601
Коэффициенты матрицы : BT.601
colour_range : Limited
Аудио #1
Идентификатор : 2
Формат : AC-3
Формат/Информация : Audio Coding 3
Расширение режима : CM (complete main)
Параметр Endianness формата : Big
Идентификатор кодека : A_AC3
Продолжительность : 1 ч. 30 м.
Вид битрейта : Постоянный
Битрейт : 640 Кбит/сек
Каналы : 6 каналов
Расположение каналов : Front: L C R, Side: L R, LFE
Частота : 48,0 КГц
Битовая глубина : 16 бит
Метод сжатия : С потерями
Размер потока : 415 Мбайт (7%)
Заголовок : Дубляж - Blu-Ray CEE
Язык : Russian
Default : Да
Forced : Нет
Аудио #2
Идентификатор : 3
Формат : AC-3
Формат/Информация : Audio Coding 3
Расширение режима : CM (complete main)
Параметр Endianness формата : Big
Идентификатор кодека : A_AC3
Продолжительность : 1 ч. 30 м.
Вид битрейта : Постоянный
Битрейт : 640 Кбит/сек
Каналы : 6 каналов
Расположение каналов : Front: L C R, Side: L R, LFE
Частота : 48,0 КГц
Битовая глубина : 16 бит
Метод сжатия : С потерями
Размер потока : 415 Мбайт (7%)
Заголовок : Eng
Default : Нет
Forced : Нет
Текст #1
Идентификатор : 4
Формат : UTF-8
Идентификатор кодека : S_TEXT/UTF8
Идентификатор кодека/Информация : UTF-8 Plain Text
Заголовок : Full
Язык : Russian
Default : Нет
Forced : Нет
Текст #2
Идентификатор : 5
Формат : UTF-8
Идентификатор кодека : S_TEXT/UTF8
Идентификатор кодека/Информация : UTF-8 Plain Text
Заголовок : Full
Язык : English
Default : Нет
Forced : Нет
Меню
00:00:00.000 : en:Fire or Ice
00:08:47.694 : en:Roundtrip Tickets
00:17:37.515 : en:Checking To See If You Are Still Human
00:25:17.516 : en:Doesn't He Own a Shirt?
00:30:20.402 : en:Our Magic Awakens When They Are Near
00:36:45.078 : en:You Wouldn't Have to Change For Me
00:43:31.776 : en:I Was A Little Theatrical Back Then
00:50:13.761 : en:This Is The Time To Make Mistakes
00:55:34.373 : en:Never Go For The Obvious Kill
01:00:11.608 : en:Battle Scars
01:06:12.218 : en:Edward Is Old School
01:13:05.214 : en:Do Me The Honor
01:19:43.362 : en:Carrying Bella To Safety
01:25:15.819 : en:Attempt To Control Your Thoughts
01:31:27.232 : en:That Should Have Been Our First Kiss
01:35:54.958 : en:She Knew You Would Be With Me
01:43:19.985 : en:The Volturi Don't Give Second Chances
01:51:53.498 : en:It's Where I Belong

Релиз подготовлен 60 - fps

Топик был перенесен из форума Новинки КиноПроката 60 FPS в форум Мультфильмы 60 FPS
Kryl

[Цитировать]
Bomber

Дайте раздачу пожалуйста
 
Показать сообщения:    

Текущее время: 27-Июл 11:32

Часовой пояс: UTC + 3


Вы не можете начинать темы
Вы не можете отвечать на сообщения
Вы не можете редактировать свои сообщения
Вы не можете удалять свои сообщения
Вы не можете голосовать в опросах
Вы не можете прикреплять файлы к сообщениям
Вы не можете скачивать файлы