VIP

Аватар / Avatar (2009) BDRip 1080p | 60 fps Мстители: Война бесконечности / Avengers: Infinity War (2018) BDRip 1080p | 60 fps Матрица : Трилогия / The Matrix : Trilogy (1999-2003) BDRip-AVC | 60 fps Дэдпул / Deadpool (2016) BDRip 1080p | 60 fps Интерстеллар / Interstellar (2014) BDRip 1080p | IMAX Edition | 60fps Железный человек : Трилогия / Iron Man : Trilogy [2008-2013] BDRip 1080p / 60 FPS Грань будущего / Edge of Tomorrow (2014) BDRip 1080p | 60 fps Доктор Стрэндж / Doctor Strange (2016) BDRip 1080p | 60 fps
  1. Стаж:
    4 года
    Сообщений:
    2415
    Пол:
    Мужской
    «Fear What's Inside» Информация
    Название: Аннигиляция
    Оригинальное название: Annihilation
    Год выхода: 2018
    Жанр: Фантастика, фэнтези, ужасы, триллер, драма, детектив, приключения
    Режиссер: Алекс Гарленд
    Сценарий: Алекс Гарленд, Джефф Вандермеер
    Продюсер: Джо Берн, Эли Буш, Дэвид Эллисон
    В ролях: Натали Портман, Дженнифер Джейсон Ли, Оскар Айзек, Тесса Томпсон, Джина Родригез, Тува Новотны, Бенедикт Вонг, Дэвид Гяси, Соноя Мидзуно, Джон Шваб

    Сюжет:
    На Землю прилетает маленький метеорит и становится причиной больших перемен. Он врезается в одиноко стоящий маяк, что загадочным образом меняет территорию вокруг.
    Профессор биологии Лина уже год страдает от потери мужа-военного. Кейн отправился на очередное секретное задание, но так и не вернулся — жив ли, погиб — женщина не знает, пока однажды дезориентированный и слегка бледный супруг внезапно не появляется на пороге их спальни. Радость длится недолго — у мужчины начинаются судороги и множественные кровотечения, а по дороге в больницу машину скорой помощи тормозят военные. Лина приходит в себя на секретной базе рядом с той самой загадочной зоной, куда уже отправлялись многочисленные экспедиции, но вернулся, оказывается, только один человек — её Кейн.

    Страна: Великобритания, США
    Продолжительность: 01:55:26

    Файл
    Кодек: H.264
    Формат: MKV
    Качество: BDRip 720p | 60 fps
    Видео: 1280 x 536 (2.388) | 59.940 fps | 10.0 Мбит/сек
    Аудио 01: AC3 | 5.1 | 48 kHz | 384 kbps | 16 bit | Профессиональный многоголосый - Jaskier |
    Аудио 02: AC3 | 5.1 | 48 kHz | 384 kbps | 16 bit | Профессиональный многоголосый - NewStudio |
    Аудио 03: AC3 | 2.0 | 48 kHz | 192 kbps | 16 bit | Профессиональный многоголосый - HDRezka Studio |
    Аудио 04: AC3 | 5.1 | 48 kHz | 448 kbps | 16 bit | Авторский одноголосый - Яроцкий |
    Аудио 05: AC3 | 5.1 | 48 kHz | 640 kbps | 16 bit | english |
    Субтитры: Русские (2xFull), английские

    MedifInfo

    Видео
    Идентификатор : 1
    Формат : AVC
    Формат/Информация : Advanced Video Codec
    Профиль формата : High@L4.1
    Параметр CABAC формата : Да
    Параметр ReFrames формата : 3 кадра
    Параметр GOP формата : M=3, N=59
    Идентификатор кодека : V_MPEG4/ISO/AVC
    Продолжительность : 1 ч. 55 м.
    Вид битрейта : Переменный
    Битрейт : 9551 Кбит/сек
    Максимальный битрейт : 10000 Кбит/сек
    Ширина : 1280 пикселей
    Высота : 536 пикселей
    Соотношение сторон : 2,40:1
    Режим частоты кадров : Постоянный
    Частота кадров : 59,880 кадров/сек
    Частота кадров в оригинале : 59,940 кадров/сек
    Стандарт вещания : PAL
    Цветовое пространство : YUV
    Субдискретизация насыщенности : 4:2:0
    Битовая глубина : 8 бит
    Тип развёртки : Прогрессивная
    Бит/(Пиксели*Кадры) : 0.232
    Размер потока : 7,70 Гбайт (81%)
    Заголовок : www.60-fps.org
    Язык : English
    Default : Да
    Forced : Нет
    Основные цвета : BT.601 NTSC
    Характеристики трансфера : BT.601
    Коэффициенты матрицы : BT.601
    colour_range : Limited
    Аудио #1
    Идентификатор : 2
    Формат : AC-3
    Формат/Информация : Audio Coding 3
    Расширение режима : CM (complete main)
    Параметр Endianness формата : Big
    Идентификатор кодека : A_AC3
    Продолжительность : 1 ч. 55 м.
    Вид битрейта : Постоянный
    Битрейт : 384 Кбит/сек
    Каналы : 6 каналов
    Расположение каналов : Front: L C R, Side: L R, LFE
    Частота : 48,0 КГц
    Битовая глубина : 16 бит
    Метод сжатия : С потерями
    Размер потока : 317 Мбайт (3%)
    Заголовок : Профессиональный многоголосый - Jaskier
    Язык : Russian
    Default : Да
    Forced : Нет
    Аудио #2
    Идентификатор : 3
    Формат : AC-3
    Формат/Информация : Audio Coding 3
    Расширение режима : CM (complete main)
    Параметр Endianness формата : Big
    Идентификатор кодека : A_AC3
    Продолжительность : 1 ч. 55 м.
    Вид битрейта : Постоянный
    Битрейт : 384 Кбит/сек
    Каналы : 6 каналов
    Расположение каналов : Front: L C R, Side: L R, LFE
    Частота : 48,0 КГц
    Битовая глубина : 16 бит
    Метод сжатия : С потерями
    Размер потока : 317 Мбайт (3%)
    Заголовок : Профессиональный многоголосый - NewStudio
    Язык : Russian
    Default : Нет
    Forced : Нет
    Аудио #3
    Идентификатор : 4
    Формат : AC-3
    Формат/Информация : Audio Coding 3
    Расширение режима : CM (complete main)
    Параметр Endianness формата : Big
    Идентификатор кодека : A_AC3
    Продолжительность : 1 ч. 55 м.
    Вид битрейта : Постоянный
    Битрейт : 192 Кбит/сек
    Каналы : 2 канала
    Расположение каналов : Front: L R
    Частота : 48,0 КГц
    Битовая глубина : 16 бит
    Метод сжатия : С потерями
    Размер потока : 159 Мбайт (2%)
    Заголовок : Профессиональный многоголосый - HDRezka Studio
    Язык : Russian
    Default : Нет
    Forced : Нет
    Аудио #4
    Идентификатор : 5
    Формат : AC-3
    Формат/Информация : Audio Coding 3
    Расширение режима : CM (complete main)
    Параметр Endianness формата : Big
    Идентификатор кодека : A_AC3
    Продолжительность : 1 ч. 55 м.
    Вид битрейта : Постоянный
    Битрейт : 448 Кбит/сек
    Каналы : 6 каналов
    Расположение каналов : Front: L C R, Side: L R, LFE
    Частота : 48,0 КГц
    Битовая глубина : 16 бит
    Метод сжатия : С потерями
    Размер потока : 370 Мбайт (4%)
    Заголовок : Авторский одноголосый - Яроцкий
    Язык : Russian
    Default : Нет
    Forced : Нет
    Аудио #5
    Идентификатор : 6
    Формат : AC-3
    Формат/Информация : Audio Coding 3
    Расширение режима : CM (complete main)
    Параметр Endianness формата : Big
    Идентификатор кодека : A_AC3
    Продолжительность : 1 ч. 55 м.
    Вид битрейта : Постоянный
    Битрейт : 640 Кбит/сек
    Каналы : 6 каналов
    Расположение каналов : Front: L C R, Side: L R, LFE
    Частота : 48,0 КГц
    Битовая глубина : 16 бит
    Метод сжатия : С потерями
    Размер потока : 528 Мбайт (5%)
    Заголовок : english
    Язык : English
    Default : Нет
    Forced : Нет
    Текст #1
    Идентификатор : 7
    Формат : UTF-8
    Идентификатор кодека : S_TEXT/UTF8
    Идентификатор кодека/Информация : UTF-8 Plain Text
    Заголовок : Full [Focs]
    Язык : Russian
    Default : Нет
    Forced : Нет
    Текст #2
    Идентификатор : 8
    Формат : UTF-8
    Идентификатор кодека : S_TEXT/UTF8
    Идентификатор кодека/Информация : UTF-8 Plain Text
    Заголовок : Full v.2
    Язык : Russian
    Default : Нет
    Forced : Нет
    Текст #3
    Идентификатор : 9
    Формат : UTF-8
    Идентификатор кодека : S_TEXT/UTF8
    Идентификатор кодека/Информация : UTF-8 Plain Text
    Заголовок : Full
    Язык : English
    Default : Нет
    Forced : Нет
    Меню
    00:00:00.000 : en:00:00:00.000
    00:05:09.309 : en:00:05:09.309
    00:11:39.157 : en:00:11:39.157
    00:17:06.692 : en:00:17:06.692
    00:24:08.656 : en:00:24:08.656
    00:28:59.446 : en:00:28:59.446
    00:37:24.242 : en:00:37:24.242
    00:41:59.517 : en:00:41:59.517
    00:49:11.448 : en:00:49:11.448
    00:56:06.405 : en:00:56:06.405
    01:03:22.298 : en:01:03:22.298
    01:10:25.012 : en:01:10:25.012
    01:17:21.929 : en:01:17:21.929
    01:22:20.477 : en:01:22:20.477
    01:30:26.296 : en:01:30:26.296
    01:38:48.589 : en:01:38:48.589
    01:43:58.357 : en:01:43:58.357
    01:48:14.279 : en:01:48:14.279

    Релиз подготовлен 60 - fps



Вы не можете начинать темы
Вы не можете отвечать на сообщения
Вы не можете редактировать свои сообщения
Вы не можете удалять свои сообщения
Вы не можете голосовать в опросах
Вы не можете прикреплять файлы к сообщениям
Вы не можете скачивать файлы