VIP

Интерстеллар / Interstellar (2014) BDRip 1080p | IMAX Edition | 60fps Проект Power / Project Power (2020) WEBRip 1080p | 60 fps Доктор Стрэндж / Doctor Strange (2016) BDRip 1080p | 60 fps Новые мутанты / The New Mutants (2020) BDRip 1080p | 60 fps Грань будущего / Edge of Tomorrow (2014) BDRip 1080p | 60 fps Обитель зла: Пенталогия / Resident Evil: Pentalogy (2002-2012) BDRip-AVC | 60 fps Бессмертная гвардия / The Old Guard (2020) WEBRip 1080p | 60 fps Тор: Рагнарёк / Thor: Ragnarok (2017) BDRip 1080p | 60 fps
  1. Longevity:
    4 years 6 months
    Posts:
    1575
    Gender:
    Male
    Фильм «Не отключайте мобильник во время сеанса» Фильм- Информация
    Название: Андроид
    Оригинальное название: App
    Год выхода: 2013
    Жанр: триллер
    Режиссер: Бобо Боерманс
    Сценарий: Роберт Артур Янсен
    Продюсер: Кес Абрахамс, Робин Де Левита, Фелис Баккер
    В ролях: Ханна Хекстра,Роберт де Хуг,Исис Каболе,Маттис ван де Санде Бакхуйзен,Марк ван Эувен,Лиза Сипс,Ерун Шпиценбергер,Патрик Мартенс,Харри ван Рейтховен,Алекс Хендрикс
    --Сюжет:
    Симпатичная студентка Анна просыпается после вечеринки и обнаруживает на своем смартфоне загадочное приложение «Айрис»… Активируя приложение, Анна запускает головокружительную и трагическую череду событий в жизни своих друзей и знакомых. Кто за этим стоит? …-- Страна: Нидерланды
    Продолжительность: 01:18:43

    Файл
    Кодек: MPEG4/ISO/AVC H.264/[email protected]
    Формат: MKV
    Качество: BDRip 1080p | 60 fps
    Видео: 1920 x 1080 (1.778) | 60.000 fps | 14,0 Мбит/сек
    Аудио 1: DTS-HD MASTER| 5.1 | 48 kHz | 1822 Кбит/сек / 1509 Кбит/сек | 16 bit | Дубляж
    Субтитры: НЕТ

    MedifInfo

    Видео
    Идентификатор : 2
    Формат : AVC
    Формат/Информация : Advanced Video Codec
    Профиль формата : [email protected]
    Параметр CABAC формата : Да
    Параметр ReFrames формата : 4 кадра
    Идентификатор кодека : V_MPEG4/ISO/AVC
    Продолжительность : 1 ч. 18 м.
    Битрейт : 14,0 Мбит/сек
    Ширина : 1920 пикселей
    Высота : 1080 пикселей
    Соотношение сторон : 16:9
    Режим частоты кадров : Постоянный
    Частота кадров : 60,000 кадров/сек
    Цветовое пространство : YUV
    Субдискретизация насыщенности : 4:2:0
    Битовая глубина : 8 бит
    Тип развёртки : Прогрессивная
    Бит/(Пиксели*Кадры) : 0.113
    Размер потока : 7,59 Гбайт (88%)
    Библиотека кодирования : x264 core 146 r2538 121396c
    Настройки программы : cabac=1 / ref=4 / deblock=1:0:0 / analyse=0x3:0x113 / me=umh / subme=9 / psy=1 / psy_rd=1.00:0.10 / mixed_ref=1 / me_range=32 / chroma_me=1 / trellis=2 / 8x8dct=1 / cqm=0 / deadzone=21,11 / fast_pskip=0 / chroma_qp_offset=-3 / threads=12 / lookahead_threads=3 / sliced_threads=0 / nr=0 / decimate=1 / interlaced=0 / bluray_compat=0 / constrained_intra=0 / bframes=16 / b_pyramid=2 / b_adapt=2 / b_bias=0 / direct=3 / weightb=1 / open_gop=0 / weightp=2 / keyint=250 / keyint_min=25 / scenecut=40 / intra_refresh=0 / rc_lookahead=40 / rc=2pass / mbtree=1 / bitrate=14000 / ratetol=1.0 / qcomp=0.60 / qpmin=0 / qpmax=69 / qpstep=4 / cplxblur=20.0 / qblur=0.5 / vbv_maxrate=14000 / vbv_bufsize=14000 / nal_hrd=none / filler=0 / ip_ratio=1.40 / aq=1:1.00
    Язык : English
    Default : Да
    Forced : Нет
    Аудио
    Идентификатор : 1
    Формат : DTS
    Формат/Информация : Digital Theater Systems
    Профиль формата : MA / Core
    Режим : 16
    Параметр Endianness формата : Big
    Идентификатор кодека : A_DTS
    Продолжительность : 1 ч. 18 м.
    Вид битрейта : Переменный / Постоянный
    Битрейт : 1822 Кбит/сек / 1509 Кбит/сек
    Каналы : 6 каналов
    Расположение каналов : Front: L C R, Side: L R, LFE
    Частота : 48,0 КГц
    Частота кадров : 93,750 кадра/сек (512 spf)
    Битовая глубина : 16 бит
    Метод сжатия : Без потерь / Lossy
    Размер потока : 1,00 Гбайт (12%)
    Язык : Russian
    Default : Да
    Forced : Нет
  2. Longevity:
    3 years 6 months
    Posts:
    5
    Gender:
    Male
    А где приложение можно скачать?
    04-Jul-2018 16:53 (after 8 months 22 days)
  3. Longevity:
    6 years 4 months
    Posts:
    2414
    Gender:
    Male
    9947А где приложение можно скачать?
    нету приложения ...
    04-Jul-2018 17:00 (after 6 minutes)


You cannot post new topics in this forum
You cannot reply to topics in this forum
You cannot edit your posts in this forum
You cannot delete your posts in this forum
You cannot vote in polls in this forum
You cannot attach files in this forum
You cannot download files in this forum