[Цитировать]
Kryl

-- Музыка Андрей Ковалев - Это не сотрется из памяти (2016) WEBRip 1080p | 60 fps Музыка --Информация о Клипе
Исполнитель: Андрей Ковалев
Название: Это не сотрется из памяти
Год выхода: 2016
Продолжительность: 00:03:40-Файл
Кодек: MPEG4/ISO/AVC/ H.264
Формат: MKV
Качество: WEBRip 1080p
Видео: 1920 x 964 (1.992) | 60.000 fps 5.0 Мбит/сек
Аудио: MP3 | 320 Кбит/сек | 44.1 KHz | 2 channels

MI

Видео
Идентификатор : 1
Формат : AVC
Формат/Информация : Advanced Video Codec
Профиль формата : High@L4.2
Параметр CABAC формата : Да
Параметр ReFrames формата : 3 кадра
Идентификатор кодека : V_MPEG4/ISO/AVC
Продолжительность : 3 м. 39 с.
Вид битрейта : Переменный
Битрейт : 4832 Кбит/сек
Максимальный битрейт : 5000 Кбит/сек
Ширина : 1920 пикселей
Высота : 964 пикселя
Соотношение сторон : 1,992
Режим частоты кадров : Постоянный
Частота кадров : 60,000 кадров/сек
Стандарт вещания : PAL
Цветовое пространство : YUV
Субдискретизация насыщенности : 4:2:0
Битовая глубина : 8 бит
Тип развёртки : Прогрессивная
Бит/(Пиксели*Кадры) : 0.044
Размер потока : 127 Мбайт (92%)
Заголовок : www.60-fps.org
Язык : English
Default : Да
Forced : Нет
Основные цвета : BT.709
Характеристики трансфера : BT.709
Коэффициенты матрицы : BT.709
colour_range : Limited
Аудио
Идентификатор : 2
Формат : MPEG Audio
Версия формата : Version 1
Профиль формата : Layer 3
Режим : Joint stereo
Идентификатор кодека : A_MPEG/L3
Идентификатор кодека/Подсказка : MP3
Продолжительность : 3 м. 39 с.
Вид битрейта : Постоянный
Битрейт : 320 Кбит/сек
Каналы : 2 канала
Частота : 44,1 КГц
Метод сжатия : С потерями
Размер потока : 8,39 Мбайт (6%)
Библиотека кодирования : LAME3.99.5
Default : Да
Forced : Нет

Релиз подготовлен 60 - fps

 
Показать сообщения:    

Текущее время: 03-Дек 16:44

Часовой пояс: UTC + 3


Вы не можете начинать темы
Вы не можете отвечать на сообщения
Вы не можете редактировать свои сообщения
Вы не можете удалять свои сообщения
Вы не можете голосовать в опросах
Вы не можете прикреплять файлы к сообщениям
Вы не можете скачивать файлы