Rammstein (БЕЗ ЦЕНЗУРЫ)| WEBRip 1080p | 60 fps Britney Spears - Oops! I Did It Again Uncut (2009) HD 1080p | 60 fps Jennifer Lopez ft. Iggy Azalea - Booty (2014) Full HD 1080p | 60 fps BLACKPINK | WEBRip 1080p | 60 fps Lady Gaga - Poker Face (2009) Full HD 1080p | 60 fps Britney Spears - Criminal (2011) BDRip 1080p | 60 fps Britney Spears - ...Baby One More Time (2009) Full HD 1080p | 60 fps QUEEN ROCK MONTREAL (1981) BDRip 1080p | 60 fps
  1. Longevity:
    6 years
    Posts:
    2419
    Gender:
    Male
    -Andreea Balan - Like a Bunny (2011) HDCam 1080p | 60 fps- -Информация о Клипе
    Исполнитель: Andreea Balan
    Название: Like a Bunny
    Год выхода: 2011
    Продолжительность:00:02:56-Файл
    Кодек: MPEG4/ISO/AVC/ H.264
    Формат: MKV
    Качество: HDCam 1080p
    Видео: 1920 x 860 (2.233) at 60.000 fps 24.0 Мбит/сек
    Аудио : AC-3 | 640 Кбит/сек | 48.0 KHz | 2.0 channels

    MI

    Видео
    Идентификатор : 1
    Формат : AVC
    Формат/Информация : Advanced Video Codec
    Профиль формата : High@L4.1
    Параметр CABAC формата : Да
    Параметр ReFrames формата : 5 кадров
    Идентификатор кодека : V_MPEG4/ISO/AVC
    Продолжительность : 2 м. 55 с.
    Битрейт : 24,0 Мбит/сек
    Ширина : 1920 пикселей
    Высота : 860 пикселей
    Соотношение сторон : 2,25:1
    Режим частоты кадров : Постоянный
    Частота кадров : 60,000 кадров/сек
    Цветовое пространство : YUV
    Субдискретизация насыщенности : 4:2:0
    Битовая глубина : 8 бит
    Тип развёртки : Прогрессивная
    Бит/(Пиксели*Кадры) : 0.242
    Размер потока : 493 Мбайт (95%)
    Заголовок : www.60-fps.org
    Библиотека кодирования : x264 core 146 r2538 121396c
    Настройки программы : cabac=1 / ref=5 / deblock=1:-1:-1 / analyse=0x3:0x133 / me=esa / subme=9 / psy=1 / psy_rd=1.00:0.25 / mixed_ref=1 / me_range=32 / chroma_me=1 / trellis=2 / 8x8dct=1 / cqm=0 / deadzone=6,6 / fast_pskip=1 / chroma_qp_offset=-4 / threads=12 / lookahead_threads=1 / sliced_threads=0 / nr=0 / decimate=0 / interlaced=0 / bluray_compat=0 / constrained_intra=0 / bframes=3 / b_pyramid=2 / b_adapt=2 / b_bias=0 / direct=3 / weightb=1 / open_gop=0 / weightp=2 / keyint=600 / keyint_min=60 / scenecut=40 / intra_refresh=0 / rc_lookahead=60 / rc=2pass / mbtree=1 / bitrate=23999 / ratetol=1.0 / qcomp=0.80 / qpmin=0 / qpmax=69 / qpstep=4 / cplxblur=20.0 / qblur=0.5 / vbv_maxrate=62500 / vbv_bufsize=78125 / nal_hrd=none / filler=0 / ip_ratio=1.10 / aq=1:0.50
    Default : Да
    Forced : Нет
    Аудио
    Идентификатор : 2
    Формат : AC-3
    Формат/Информация : Audio Coding 3
    Расширение режима : CM (complete main)
    Параметр Endianness формата : Big
    Идентификатор кодека : A_AC3
    Продолжительность : 2 м. 55 с.
    Вид битрейта : Постоянный
    Битрейт : 640 Кбит/сек
    Каналы : 2 канала
    Расположение каналов : Front: L R
    Частота : 48,0 КГц
    Битовая глубина : 16 бит
    Метод сжатия : С потерями
    Размер потока : 13,4 Мбайт (3%)
    Заголовок : AC3 640
    Язык : English
    Default : Да
    Forced : Нет

    Release was prepared by 60 - fps

  2. Longevity:
    6 years
    Posts:
    2419
    Gender:
    Male
    2988Спасибо!!!
    Пожалуйста .
    18-Jun-2015 09:16 (after 16 hours)
  3. Longevity:
    4 years 10 months
    Posts:
    11
    Gender:
    Unknown
    Сообщение появится после проверки модератором
    23-Nov-2017 23:34 (after 2 years 5 months)


You cannot post new topics in this forum
You cannot reply to topics in this forum
You cannot edit your posts in this forum
You cannot delete your posts in this forum
You cannot vote in polls in this forum
You cannot attach files in this forum
You cannot download files in this forum