[Цитировать]
Kryl

«Возвращение к терапии»- Информация
Название: Анализируй то
Оригинальное название: Analyze That
Год выхода: 2002
Жанр: Комедия, криминал
Режиссер: Харольд Рэмис
Сценарий: Питер Толан, Питер Стайнфелд, Харольд Рэмис
Продюсер: Джейн Розенталь, Паула Вайнштейн, Лен Амато
В ролях: Роберт Де Ниро, Билли Кристал, Лиза Кудроу, Джо Витерелли, Кэти Мориарти, Джои Диаз, Джером Лепаж, Джозеф Боно, Brian Rogalski, Томас Розалес мл.
--Сюжет:
Сиквел неожиданно успешной комедии 1999 года с теми же актерами и персонажами, с тем же режиссером. В начале фильма Пол Витти, крестный отец мафии, сидит в тюрьме. Он не в самом лучшем психическом состоянии, ему нужна помощь психоаналитика доктора Бена Собеля.
Однако ирония в том, что психоаналитик теперь нужен и самому Собелю — после смерти отца на него свалился семейный бизнес, и он пребывает в жутком стрессе. Тем временем, Витти выходит на свободу и пытается приспособиться к жизни вне мафии — поступает на телевидение, где консультирует передачи… о мафии.
- Страна: США, Австралия
Продолжительность: 01:35:47

Файл
Кодек: MPEG4/ISO/AVC H.264
Формат: MKV
Качество: BDRip 720p | 60 fps
Видео: 1280 x 720 (1.778) | 59.940 fps | 10.0 Мбит/сек
Аудио 1: AC3 | 5.1 | 48 kHz | 640 kbps | 16 bit | Дубляж |
Аудио 2: AC3 | 5.1 | 48 kHz | 384 kbps | 16 bit | Авторский (одноголосый, закадровый) Рудой |
Аудио 3: AC3 | 5.1 | 48 kHz | 384 kbps | 16 bit | Профессиональный (многоголосый, закадровый) |
Аудио 4: AC3 | 5.1 | 48 kHz | 384kbps | 16 bit | ENG |
Субтитры: RU, ENG

MedifInfo

Видео
Идентификатор : 1
Формат : AVC
Формат/Информация : Advanced Video Codec
Профиль формата : High@L4.1
Параметр CABAC формата : Да
Параметр ReFrames формата : 8 кадров
Идентификатор кодека : V_MPEG4/ISO/AVC
Продолжительность : 1 ч. 35 м.
Битрейт : 9999 Кбит/сек
Ширина : 1280 пикселей
Высота : 720 пикселей
Соотношение сторон : 16:9
Режим частоты кадров : Постоянный
Частота кадров : 59,880 кадров/сек
Частота кадров в оригинале : 59,940 кадров/сек
Цветовое пространство : YUV
Субдискретизация насыщенности : 4:2:0
Битовая глубина : 8 бит
Тип развёртки : Прогрессивная
Бит/(Пиксели*Кадры) : 0.181
Размер потока : 6,53 Гбайт (83%)
Заголовок : www.60-fps.org
Библиотека кодирования : x264 core 148 r2638 7599210
Настройки программы : cabac=1 / ref=8 / deblock=1:-3:-3 / analyse=0x3:0x133 / me=esa / subme=9 / psy=1 / psy_rd=1.00:0.25 / mixed_ref=1 / me_range=32 / chroma_me=1 / trellis=2 / 8x8dct=1 / cqm=0 / deadzone=6,6 / fast_pskip=1 / chroma_qp_offset=-4 / threads=12 / lookahead_threads=1 / sliced_threads=0 / nr=0 / decimate=0 / interlaced=0 / bluray_compat=0 / constrained_intra=0 / bframes=3 / b_pyramid=2 / b_adapt=2 / b_bias=0 / direct=3 / weightb=1 / open_gop=0 / weightp=2 / keyint=599 / keyint_min=59 / scenecut=40 / intra_refresh=0 / rc_lookahead=60 / rc=2pass / mbtree=1 / bitrate=9999 / ratetol=1.0 / qcomp=0.80 / qpmin=0 / qpmax=69 / qpstep=4 / cplxblur=20.0 / qblur=0.5 / vbv_maxrate=62500 / vbv_bufsize=78125 / nal_hrd=none / filler=0 / ip_ratio=1.10 / aq=1:0.50
Default : Да
Forced : Нет
Аудио #1
Идентификатор : 2
Формат : AC-3
Формат/Информация : Audio Coding 3
Расширение режима : CM (complete main)
Параметр Endianness формата : Big
Идентификатор кодека : A_AC3
Продолжительность : 1 ч. 35 м.
Вид битрейта : Постоянный
Битрейт : 640 Кбит/сек
Каналы : 6 каналов
Расположение каналов : Front: L C R, Side: L R, LFE
Частота : 48,0 КГц
Битовая глубина : 16 бит
Метод сжатия : С потерями
Размер потока : 438 Мбайт (5%)
Заголовок : AC3 5.1 640 kbps
Язык : Russian
Default : Да
Forced : Нет
Аудио #2
Идентификатор : 3
Формат : AC-3
Формат/Информация : Audio Coding 3
Расширение режима : CM (complete main)
Параметр Endianness формата : Big
Идентификатор кодека : A_AC3
Продолжительность : 1 ч. 35 м.
Вид битрейта : Постоянный
Битрейт : 384 Кбит/сек
Каналы : 6 каналов
Расположение каналов : Front: L C R, Side: L R, LFE
Частота : 48,0 КГц
Битовая глубина : 16 бит
Метод сжатия : С потерями
Размер потока : 263 Мбайт (3%)
Заголовок : Рудой
Default : Нет
Forced : Нет
Аудио #3
Идентификатор : 4
Формат : AC-3
Формат/Информация : Audio Coding 3
Расширение режима : CM (complete main)
Параметр Endianness формата : Big
Идентификатор кодека : A_AC3
Продолжительность : 1 ч. 35 м.
Вид битрейта : Постоянный
Битрейт : 384 Кбит/сек
Каналы : 6 каналов
Расположение каналов : Front: L C R, Side: L R, LFE
Частота : 48,0 КГц
Битовая глубина : 16 бит
Метод сжатия : С потерями
Размер потока : 263 Мбайт (3%)
Заголовок : Профессиональный (многоголосый, закадровый)
Default : Нет
Forced : Нет
Аудио #4
Идентификатор : 5
Формат : AC-3
Формат/Информация : Audio Coding 3
Расширение режима : CM (complete main)
Параметр Endianness формата : Big
Идентификатор кодека : A_AC3
Продолжительность : 1 ч. 35 м.
Вид битрейта : Постоянный
Битрейт : 384 Кбит/сек
Каналы : 6 каналов
Расположение каналов : Front: L C R, Side: L R, LFE
Частота : 48,0 КГц
Битовая глубина : 16 бит
Метод сжатия : С потерями
Размер потока : 263 Мбайт (3%)
Заголовок : ENG
Default : Нет
Forced : Нет
Текст #1
Идентификатор : 6
Формат : UTF-8
Идентификатор кодека : S_TEXT/UTF8
Идентификатор кодека/Информация : UTF-8 Plain Text
Заголовок : Blu-Ray
Язык : Russian
Default : Нет
Forced : Нет
Текст #2
Идентификатор : 7
Формат : UTF-8
Идентификатор кодека : S_TEXT/UTF8
Идентификатор кодека/Информация : UTF-8 Plain Text
Заголовок : DVD
Язык : Russian
Default : Нет
Forced : Нет
Текст #3
Идентификатор : 8
Формат : UTF-8
Идентификатор кодека : S_TEXT/UTF8
Идентификатор кодека/Информация : UTF-8 Plain Text
Язык : English
Default : Нет
Forced : Нет
Меню
00:00:00.000 : en:Two Hits
00:04:10.250 : en:Not a Good Time
00:06:21.298 : en:Shiv and a Song
00:07:20.523 : en:Calling Dr. Sobel
00:11:20.847 : en:Weasels to Midgits
00:14:14.353 : en:You're Responsible
00:17:15.785 : en:Gasoline on a Fire
00:20:07.915 : en:Not a Good Start
00:24:25.381 : en:Cowboy Boss
00:30:50.724 : en:Lady Boss
00:35:23.455 : en:Here's the Manager
00:39:10.181 : en:Performance Anxiety
00:42:20.371 : en:Unfiltered
00:46:37.545 : en:You Got Me There
00:48:47.258 : en:Mob on the Job
00:53:02.054 : en:No Stromboni
00:55:33.038 : en:Visitors to the Set
01:00:05.519 : en:Ben Hangs Out
01:02:11.686 : en:Chased and Screwed
01:06:24.564 : en:Character Actor
01:08:28.229 : en:Change for a 20
01:11:38.169 : en:In Is Better
01:14:33.636 : en:Lifting the Gold
01:18:33.459 : en:Letting Go With a Hug
01:22:04.461 : en:Anger Management
01:23:14.823 : en:Battling Bullhorns
01:26:37.442 : en:Happy Ending
01:30:33.428 : en:Outtake End Credits

Релиз подготовлен 60 - fps

 
Показать сообщения:    

Текущее время: 06-Дек 15:07

Часовой пояс: UTC + 3


Вы не можете начинать темы
Вы не можете отвечать на сообщения
Вы не можете редактировать свои сообщения
Вы не можете удалять свои сообщения
Вы не можете голосовать в опросах
Вы не можете прикреплять файлы к сообщениям
Вы не можете скачивать файлы