[Цитировать]
Kryl

«Крупнейший гангстер Нью-Йорка на сеансе у психоаналитика»- Информация
Название: Анализируй это
Оригинальное название: Analyze This
Год выхода: 1999
Жанр: Комедия, криминал
Режиссер: Харольд Рэмис
Сценарий: Кеннет Лонерган, Питер Толан, Харольд Рэмис
Продюсер: Джейн Розенталь, Паула Вайнштейн, Лен Амато
В ролях: Роберт Де Ниро, Билли Кристал, Лиза Кудроу, Чазз Пальминтери, Крешимир Новакович, Bart Tangredi, Майкл Страка, Джозеф Ригано, Джо Витерелли, Ричард С. Кастеллано
--Сюжет:
Пол Витти — влиятельный нью-йоркский мафиози на грани нервного срыва. Все гангстеры в шоке: как помочь своему чокнутому боссу? Бен Соболь — обычный психоаналитик. У него есть всего несколько дней на то, чтобы помочь крестному отцу справиться с депрессией.- - Страна: США, Австралия
Продолжительность: 01:43:30

Файл
Кодек: MPEG4/ISO/AVC H.264
Формат: MKV
Качество: BDRip 720p | 60 fps
Видео: 1280 x 720 (1.778) | 59.940 fps | 10.0 Мбит/сек
Аудио 1: AC3 | 5.1 | 48 kHz | 640 kbps | 16 bit | Дубляж |
Аудио 2: AC3 | 5.1 | 48 kHz | 448 kbps | 16 bit | Авторский (одноголосый, закадровый) Павел Санаев |
Аудио 3: AC3 | 5.1 | 48 kHz | 448 kbps | 16 bit | Авторский (одноголосый, закадровый) Юрий Живов |
Аудио 4: AC3 | 2.0 | 48 kHz | 192 kbps | 16 bit | Авторский (одноголосый, закадровый) Александр Кашкин |
Аудио 5: AC3 | 2.0 | 48 kHz | 192 kbps | 16 bit | Авторский (одноголосый, закадровый) Николай Антонов |
Аудио 6: AC3 | 2.0 | 48 kHz | 192 kbps | 16 bit | Профессиональный (одноголосый, закадровый) CDV |
Аудио 7: AC3 | 5.1 | 48 kHz | 448 kbps | 16 bit | ENG |
Субтитры: RU, ENG

MedifInfo

Видео
Идентификатор : 1
Формат : AVC
Формат/Информация : Advanced Video Codec
Профиль формата : High@L4.1
Параметр CABAC формата : Да
Параметр ReFrames формата : 3 кадра
Идентификатор кодека : V_MPEG4/ISO/AVC
Продолжительность : 1 ч. 43 м.
Вид битрейта : Переменный
Битрейт : 9727 Кбит/сек
Максимальный битрейт : 10000 Кбит/сек
Ширина : 1280 пикселей
Высота : 720 пикселей
Соотношение сторон : 16:9
Режим частоты кадров : Постоянный
Частота кадров : 59,880 кадров/сек
Частота кадров в оригинале : 59,940 кадров/сек
Стандарт вещания : PAL
Цветовое пространство : YUV
Субдискретизация насыщенности : 4:2:0
Битовая глубина : 8 бит
Тип развёртки : Прогрессивная
Бит/(Пиксели*Кадры) : 0.176
Размер потока : 7,03 Гбайт (78%)
Заголовок : www.60-fps.org
Язык : English
Default : Да
Forced : Нет
Основные цвета : BT.709
Характеристики трансфера : BT.709
Коэффициенты матрицы : BT.709
colour_range : Limited
Аудио #1
Идентификатор : 2
Формат : AC-3
Формат/Информация : Audio Coding 3
Расширение режима : CM (complete main)
Параметр Endianness формата : Big
Идентификатор кодека : A_AC3
Продолжительность : 1 ч. 43 м.
Вид битрейта : Постоянный
Битрейт : 640 Кбит/сек
Каналы : 6 каналов
Расположение каналов : Front: L C R, Side: L R, LFE
Частота : 48,0 КГц
Битовая глубина : 16 бит
Метод сжатия : С потерями
Размер потока : 474 Мбайт (5%)
Заголовок : Дубляж
Язык : Russian
Default : Да
Forced : Нет
Аудио #2
Идентификатор : 3
Формат : AC-3
Формат/Информация : Audio Coding 3
Расширение режима : CM (complete main)
Параметр Endianness формата : Big
Идентификатор кодека : A_AC3
Продолжительность : 1 ч. 43 м.
Вид битрейта : Постоянный
Битрейт : 448 Кбит/сек
Каналы : 6 каналов
Расположение каналов : Front: L C R, Side: L R, LFE
Частота : 48,0 КГц
Битовая глубина : 16 бит
Метод сжатия : С потерями
Размер потока : 332 Мбайт (4%)
Заголовок : Авторский (одноголосый, закадровый) Павел Санаев
Default : Нет
Forced : Нет
Аудио #3
Идентификатор : 4
Формат : AC-3
Формат/Информация : Audio Coding 3
Расширение режима : CM (complete main)
Параметр Endianness формата : Big
Идентификатор кодека : A_AC3
Продолжительность : 1 ч. 43 м.
Вид битрейта : Постоянный
Битрейт : 448 Кбит/сек
Каналы : 6 каналов
Расположение каналов : Front: L C R, Side: L R, LFE
Частота : 48,0 КГц
Битовая глубина : 16 бит
Метод сжатия : С потерями
Размер потока : 332 Мбайт (4%)
Заголовок : Авторский (одноголосый, закадровый) Юрий Живов
Default : Нет
Forced : Нет
Аудио #4
Идентификатор : 5
Формат : AC-3
Формат/Информация : Audio Coding 3
Расширение режима : CM (complete main)
Параметр Endianness формата : Big
Идентификатор кодека : A_AC3
Продолжительность : 1 ч. 43 м.
Вид битрейта : Постоянный
Битрейт : 192 Кбит/сек
Каналы : 2 канала
Расположение каналов : Front: L R
Частота : 48,0 КГц
Битовая глубина : 16 бит
Метод сжатия : С потерями
Размер потока : 142 Мбайт (2%)
Заголовок : Авторский (одноголосый, закадровый) Александр Кашкин
Default : Нет
Forced : Нет
Аудио #5
Идентификатор : 6
Формат : AC-3
Формат/Информация : Audio Coding 3
Расширение режима : CM (complete main)
Параметр Endianness формата : Big
Идентификатор кодека : A_AC3
Продолжительность : 1 ч. 43 м.
Вид битрейта : Постоянный
Битрейт : 192 Кбит/сек
Каналы : 2 канала
Расположение каналов : Front: L R
Частота : 48,0 КГц
Битовая глубина : 16 бит
Метод сжатия : С потерями
Размер потока : 142 Мбайт (2%)
Заголовок : Авторский (одноголосый, закадровый) Николай Антонов
Default : Нет
Forced : Нет
Аудио #6
Идентификатор : 7
Формат : AC-3
Формат/Информация : Audio Coding 3
Расширение режима : CM (complete main)
Параметр Endianness формата : Big
Идентификатор кодека : A_AC3
Продолжительность : 1 ч. 43 м.
Вид битрейта : Постоянный
Битрейт : 192 Кбит/сек
Каналы : 2 канала
Расположение каналов : Front: L R
Частота : 48,0 КГц
Битовая глубина : 16 бит
Метод сжатия : С потерями
Размер потока : 142 Мбайт (2%)
Заголовок : Профессиональный (одноголосый, закадровый) CDV
Default : Нет
Forced : Нет
Аудио #7
Идентификатор : 8
Формат : AC-3
Формат/Информация : Audio Coding 3
Расширение режима : CM (complete main)
Параметр Endianness формата : Big
Идентификатор кодека : A_AC3
Продолжительность : 1 ч. 43 м.
Вид битрейта : Постоянный
Битрейт : 448 Кбит/сек
Каналы : 6 каналов
Расположение каналов : Front: L C R, Side: L R, LFE
Частота : 48,0 КГц
Битовая глубина : 16 бит
Метод сжатия : С потерями
Размер потока : 332 Мбайт (4%)
Заголовок : ENG
Default : Нет
Forced : Нет
Текст #1
Идентификатор : 9
Формат : UTF-8
Идентификатор кодека : S_TEXT/UTF8
Идентификатор кодека/Информация : UTF-8 Plain Text
Заголовок : Blu-Ray
Язык : Russian
Default : Нет
Forced : Нет
Текст #2
Идентификатор : 10
Формат : UTF-8
Идентификатор кодека : S_TEXT/UTF8
Идентификатор кодека/Информация : UTF-8 Plain Text
Язык : English
Default : Нет
Forced : Нет
Текст #3
Идентификатор : 11
Формат : UTF-8
Идентификатор кодека : S_TEXT/UTF8
Идентификатор кодека/Информация : UTF-8 Plain Text
Заголовок : DVD
Язык : Russian
Default : Нет
Forced : Нет
Меню
00:00:00.000 : en:Family History (Credits)
00:03:41.179 : en:It's a Hit
00:05:30.664 : en:Reflections on Caroline
00:07:36.414 : en:Relatively Painless
00:08:40.395 : en:Close Encounter
00:10:48.731 : en:Getting Hostile
00:12:36.214 : en:Not a Panic Attack
00:16:29.030 : en:Office Visit
00:22:59.878 : en:What Primo Wants
00:24:35.474 : en:Not Happening
00:27:17.427 : en:Gangster Under Stress
00:33:36.640 : en:Not Treating Him
00:35:03.685 : en:All Wet
00:36:49.499 : en:Greek to Him
00:39:50.471 : en:The Captain and Black Milk
00:42:18.828 : en:Guy Stuff
00:43:43.996 : en:Wedding Day Victims
00:47:46.822 : en:Closure With Primo
00:50:08.881 : en:Shrink Under Stress
00:54:34.688 : en:The Godfather Dream
00:58:38.140 : en:Mutual Analysis
01:01:49.748 : en:Truth Over Pasta
01:06:04.752 : en:Reaching Out
01:08:38.406 : en:A Sorry State
01:12:54.078 : en:Bang-Bang!
01:15:59.305 : en:Her Bucking Bronco
01:17:32.773 : en:There Goes the Groom
01:21:15.954 : en:A Vague Plan
01:23:20.037 : en:Blending In
01:26:08.747 : en:The Consigliere
01:29:40.083 : en:Problem With Aggression
01:33:48.039 : en:Bullet Taken
01:37:08.322 : en:Live Music
01:39:22.456 : en:End Credits

Релиз подготовлен 60 - fps

[Цитировать]
stefss

Можно надеяться на второй фильм?!

[Цитировать]
Kryl

5428Можно надеяться на второй фильм?!
Думаю Да ..

[Цитировать]
voronazz

Kryl, анализируй это=помоги докачать у меня 97 процентов осталось 3 хочу докачать с уважением....

[Цитировать]
Kryl

7709Kryl, анализируй это=помоги докачать у меня 97 процентов осталось 3 хочу докачать с уважением....
помог бы , да у меня нету этого файла уже давно Грущу
 
Показать сообщения:    

Текущее время: 28-Май 00:12

Часовой пояс: UTC + 3


Вы не можете начинать темы
Вы не можете отвечать на сообщения
Вы не можете редактировать свои сообщения
Вы не можете удалять свои сообщения
Вы не можете голосовать в опросах
Вы не можете прикреплять файлы к сообщениям
Вы не можете скачивать файлы