[Цитировать]
Kryl

«'Jim's finally taking her up the aisle'»- Информация
Название: Американский пирог 3: Свадьба
Оригинальное название: American Wedding
Год выхода: 2003
Жанр: комедия
Режиссер: Джесси Дилан
Сценарий: Адам Херц
Продюсер: Крис Бендер, Адам Херц, Крис Мур
В ролях: Джейсон Биггз, Шонн Уильям Скотт, Элисон Хэннигэн, Эдди Кэй Томас, Томас Иэн Николас, Дженьюэри Джонс, Юджин Леви, Молли Чик, Дебора Раш, Фред Уиллард и др.
--Сюжет:
Джим и Мишель решили пожениться! Ведь свадьба — штука важная, и готовиться к ней надо основательно и серьёзно, тем более, если шафером у жениха собирается стать сам Стифлер! В обширную предсвадебную программу включены: холостяцкая вечеринка со стриптизёршами; соблазнение женщин преклонного возраста в кромешной тьме; украшение свадебного торта лобковыми волосами; очередное сексуальное родео Финча с мамашей Стифлера, как, впрочем, и сам Стифлер — новоявленная гей-икона, прирождённый танцор-диско, тестостероновый титан и главная звезда торжества! Джим и Мишель приглашают Вас на свою свадьбу, скучать на которой Вам точно не придётся!- Страна: США, Германия
Продолжительность: 01:50:40

Файл
Кодек: MPEG4/ISO/AVC H.264
Формат: MKV
Качество: BDRip 720p | 60 fps
Видео: 1280 x 542 (2.362) | 59.940 fps | 8.0 Мбит/сек
Аудио 1: AC3 | 5.1 | 48 kHz | 448 kbps | 16 bit | Профессиональный (полное дублирование) |
Аудио 2: AC3 | 2.0 | 48 kHz | 192 kbps | 16 bit | Премьер-Мультимедиа |
Аудио 3: AC3 | 2.0 | 48 kHz | 192 kbps | 16 bit | MVO |
Аудио 4: AC3 | 2.0 | 48 kHz | 192 kbps | 16 bit | DVO |
Аудио 5: AC3 | 2.0 | 48 kHz | 192 kbps | 16 bit | Антон Карповский |
Аудио 6: AC3 | 5.1 | 48 kHz | 384 kbps | 16 bit | АVO - Денис Строев |
Аудио 7: AC3 | 5.1 | 48 kHz | 384 kbps | 16 bit | АVO - Михаил Чадов |
Аудио 8: AC3 | 5.1 | 48 kHz | 448 kbps | 16 bit | ENG |
Субтитры: Русские (2 варианта), English

MedifInfo

Видео
Идентификатор : 1
Формат : AVC
Формат/Информация : Advanced Video Codec
Профиль формата : High@L4.1
Параметр CABAC формата : Да
Параметр ReFrames формата : 3 кадра
Параметр GOP формата : M=3, N=72
Идентификатор кодека : V_MPEG4/ISO/AVC
Продолжительность : 1 ч. 43 м.
Вид битрейта : Переменный
Битрейт : 7614 Кбит/сек
Максимальный битрейт : 8000 Кбит/сек
Ширина : 1280 пикселей
Высота : 542 пикселя
Соотношение сторон : 2,35:1
Режим частоты кадров : Постоянный
Частота кадров : 59,880 кадров/сек
Частота кадров в оригинале : 59,940 кадров/сек
Стандарт вещания : PAL
Цветовое пространство : YUV
Субдискретизация насыщенности : 4:2:0
Битовая глубина : 8 бит
Тип развёртки : Прогрессивная
Бит/(Пиксели*Кадры) : 0.183
Размер потока : 5,50 Гбайт (74%)
Заголовок : www.60-fps.org
Язык : English
Default : Да
Forced : Нет
Основные цвета : BT.601 NTSC
Характеристики трансфера : BT.601
Коэффициенты матрицы : BT.601
colour_range : Limited
Аудио #1
Идентификатор : 2
Формат : AC-3
Формат/Информация : Audio Coding 3
Расширение режима : CM (complete main)
Параметр Endianness формата : Big
Идентификатор кодека : A_AC3
Продолжительность : 1 ч. 43 м.
Вид битрейта : Постоянный
Битрейт : 448 Кбит/сек
Каналы : 6 каналов
Расположение каналов : Front: L C R, Side: L R, LFE
Частота : 48,0 КГц
Битовая глубина : 16 бит
Метод сжатия : С потерями
Размер потока : 331 Мбайт (4%)
Заголовок : Профессиональный (полное дублирование)
Default : Да
Forced : Нет
Аудио #2
Идентификатор : 3
Формат : AC-3
Формат/Информация : Audio Coding 3
Расширение режима : CM (complete main)
Параметр Endianness формата : Big
Идентификатор кодека : A_AC3
Продолжительность : 1 ч. 43 м.
Вид битрейта : Постоянный
Битрейт : 192 Кбит/сек
Каналы : 2 канала
Расположение каналов : Front: L R
Частота : 48,0 КГц
Битовая глубина : 16 бит
Метод сжатия : С потерями
Размер потока : 142 Мбайт (2%)
Заголовок : Премьер Мультимедия
Язык : Russian
Default : Нет
Forced : Нет
Аудио #3
Идентификатор : 4
Формат : AC-3
Формат/Информация : Audio Coding 3
Расширение режима : CM (complete main)
Параметр Endianness формата : Big
Идентификатор кодека : A_AC3
Продолжительность : 1 ч. 43 м.
Вид битрейта : Постоянный
Битрейт : 192 Кбит/сек
Каналы : 2 канала
Расположение каналов : Front: L R
Частота : 48,0 КГц
Битовая глубина : 16 бит
Метод сжатия : С потерями
Размер потока : 142 Мбайт (2%)
Заголовок : MVO
Язык : Russian
Default : Нет
Forced : Нет
Аудио #4
Идентификатор : 5
Формат : AC-3
Формат/Информация : Audio Coding 3
Расширение режима : CM (complete main)
Параметр Endianness формата : Big
Идентификатор кодека : A_AC3
Продолжительность : 1 ч. 43 м.
Вид битрейта : Постоянный
Битрейт : 192 Кбит/сек
Каналы : 2 канала
Расположение каналов : Front: L R
Частота : 48,0 КГц
Битовая глубина : 16 бит
Метод сжатия : С потерями
Размер потока : 142 Мбайт (2%)
Заголовок : DVO
Язык : Russian
Default : Нет
Forced : Нет
Аудио #5
Идентификатор : 6
Формат : AC-3
Формат/Информация : Audio Coding 3
Расширение режима : CM (complete main)
Параметр Endianness формата : Big
Идентификатор кодека : A_AC3
Продолжительность : 1 ч. 43 м.
Вид битрейта : Постоянный
Битрейт : 192 Кбит/сек
Каналы : 2 канала
Расположение каналов : Front: L R
Частота : 48,0 КГц
Битовая глубина : 16 бит
Метод сжатия : С потерями
Размер потока : 142 Мбайт (2%)
Заголовок : Антон Карповский
Язык : Russian
Default : Нет
Forced : Нет
Аудио #6
Идентификатор : 7
Формат : AC-3
Формат/Информация : Audio Coding 3
Расширение режима : CM (complete main)
Параметр Endianness формата : Big
Идентификатор кодека : A_AC3
Продолжительность : 1 ч. 43 м.
Вид битрейта : Постоянный
Битрейт : 384 Кбит/сек
Каналы : 6 каналов
Расположение каналов : Front: L C R, Side: L R, LFE
Частота : 48,0 КГц
Битовая глубина : 16 бит
Метод сжатия : С потерями
Размер потока : 284 Мбайт (4%)
Заголовок : Денис Строев
Язык : Russian
Default : Нет
Forced : Нет
Аудио #7
Идентификатор : 8
Формат : AC-3
Формат/Информация : Audio Coding 3
Расширение режима : CM (complete main)
Параметр Endianness формата : Big
Идентификатор кодека : A_AC3
Продолжительность : 1 ч. 43 м.
Вид битрейта : Постоянный
Битрейт : 384 Кбит/сек
Каналы : 6 каналов
Расположение каналов : Front: L C R, Side: L R, LFE
Частота : 48,0 КГц
Битовая глубина : 16 бит
Метод сжатия : С потерями
Размер потока : 284 Мбайт (4%)
Заголовок : Михаил Чадов
Язык : Russian
Default : Нет
Forced : Нет
Аудио #8
Идентификатор : 9
Формат : AC-3
Формат/Информация : Audio Coding 3
Расширение режима : CM (complete main)
Параметр Endianness формата : Big
Идентификатор кодека : A_AC3
Продолжительность : 1 ч. 43 м.
Вид битрейта : Постоянный
Битрейт : 448 Кбит/сек
Каналы : 6 каналов
Расположение каналов : Front: L C R, Side: L R, LFE
Частота : 48,0 КГц
Битовая глубина : 16 бит
Метод сжатия : С потерями
Размер потока : 331 Мбайт (4%)
Заголовок : eng
Default : Нет
Forced : Нет
Текст #1
Идентификатор : 10
Формат : UTF-8
Идентификатор кодека : S_TEXT/UTF8
Идентификатор кодека/Информация : UTF-8 Plain Text
Заголовок : CEE
Язык : Russian
Default : Нет
Forced : Нет
Текст #2
Идентификатор : 11
Формат : UTF-8
Идентификатор кодека : S_TEXT/UTF8
Идентификатор кодека/Информация : UTF-8 Plain Text
Заголовок : Alex Raynor
Язык : Russian
Default : Нет
Forced : Нет
Текст #3
Идентификатор : 12
Формат : UTF-8
Идентификатор кодека : S_TEXT/UTF8
Идентификатор кодека/Информация : UTF-8 Plain Text
Заголовок : SRT
Язык : English
Default : Нет
Forced : Нет
Текст #4
Идентификатор : 13
Формат : PGS
Режим смешивания : zlib
Идентификатор кодека : S_HDMV/PGS
Идентификатор кодека/Информация : The same subtitle format used on BDs/HD-DVDs
Заголовок : PGS
Язык : English
Default : Нет
Forced : Нет
Меню
00:00:00.000 : en:00:00:00.000
00:07:25.195 : en:00:07:25.195
00:13:58.629 : en:00:13:58.629
00:16:40.374 : en:00:16:40.374
00:20:29.520 : en:00:20:29.520
00:21:45.012 : en:00:21:45.012
00:25:00.332 : en:00:25:00.332
00:29:54.710 : en:00:29:54.710
00:33:15.827 : en:00:33:15.827
00:38:37.607 : en:00:38:37.607
00:41:17.975 : en:00:41:17.975
00:42:40.767 : en:00:42:40.767
00:59:02.414 : en:00:59:02.414
01:02:56.231 : en:01:02:56.231
01:04:55.141 : en:01:04:55.141
01:08:14.882 : en:01:08:14.882
01:11:02.383 : en:01:11:02.383
01:13:09.677 : en:01:13:09.677
01:15:58.095 : en:01:15:58.095
01:19:01.362 : en:01:19:01.362
01:23:31.715 : en:01:23:31.715
01:27:10.434 : en:01:27:10.434
01:29:21.147 : en:01:29:21.147
01:30:29.132 : en:01:30:29.132
01:33:26.601 : en:01:33:26.601
01:36:11.349 : en:01:36:11.349
01:37:18.958 : en:01:37:18.958
01:38:09.842 : en:01:38:09.842
Киношка сделана по заказу пользователя
вячеслав

Релиз подготовлен 60 - fps

 
Показать сообщения:    

Текущее время: 10-Дек 19:35

Часовой пояс: UTC + 3


Вы не можете начинать темы
Вы не можете отвечать на сообщения
Вы не можете редактировать свои сообщения
Вы не можете удалять свои сообщения
Вы не можете голосовать в опросах
Вы не можете прикреплять файлы к сообщениям
Вы не можете скачивать файлы