Американский ниндзя / American Ninja (1985)

«The Orient created the world's deadliest art. Now there's an American master!»- Информация
Название: Американский ниндзя
Оригинальное название: American Ninja
Год выхода: 1985
Жанр: боевик, мелодрама, приключения
Режиссер: Сэм Фёрстенберг
Сценарий: Пол Де Мильхе, Джеймс Р. Силк, Ави Клайнбергер
Продюсер: Йорам Глобус, Менахем Голан, Гидеон Амир
В ролях: Майкл Дудикофф, Стив Джеймс, Джуди Аронсон, Гуч Кук, Джон Фудзиока, Дон Стюарт, Джон ЛаМотта, Тадаши Йамашита, Фил Брок, Тони Кэрреон
--Сюжет:
Джо Армстронг, 18 — летний рядовой филиппинского отряда армии США, сопровождает военный конвой, который подвергается нападению бандитов. В одном из них Джо узнает черного воина — ниндзя. Обороняясь, он инстинктивно начинает использовать технику ниндзюцу.
Эта неожиданно проявившаяся способность вызывает подозрение у командира его отряда и остальных солдат. Распутывая паутину темных интриг, Джо остается один в битве с окружающей его коррупцией. В конце концов, в глубине непроходимых джунглей, Джо раскрывает тайну собственного прошлого, тайну, ведущую его к последнему бою со зловещим предводителем Черных Ниндзя.
- - Страна: США
Продолжительность: 01:35:52

Файл
Кодек: MPEG4/ISO/AVC H.264
Формат: MKV
Качество: BDRip-AVC | 60 fps
Видео: 1024x552 (1.855) | 59.940 fps | 4.6 Мбит/сек
Аудио 1: AC3 | 2.0 | 48 kHz | 192 kbps | 16 bit | СОЮЗ Видео |
Аудио 2: AC3 | 2.0 | 48 kHz | 192 kbps | 16 bit | СТС |
Аудио 3: AC3 | 2.0 | 48 kHz | 192 kbps | 16 bit | украинский |
Аудио 4: AC3 | 2.0 | 48 kHz | 640 kbps | 16 bit | ENG |

MedifInfo

Video
ID : 1
Format : AVC
Format/Info : Advanced Video Codec
Format profile : High@L4.1
Format settings, CABAC : Yes
Format settings, ReFrames : 4 frames
Codec ID : V_MPEG4/ISO/AVC
Duration : 1h 35mn
Bit rate : 4 600 Kbps
Width : 1 024 pixels
Height : 552 pixels
Display aspect ratio : 1.855
Frame rate : 59.940 fps
Color space : YUV
Chroma subsampling : 4:2:0
Bit depth : 8 bits
Scan type : Progressive
Bits/(Pixel*Frame) : 0.136
Stream size : 3.01 GiB (77%)
Writing library : x264 core 146 r2538 121396c
Encoding settings : cabac=1 / ref=3 / deblock=1:0:0 / analyse=0x3:0x113 / me=umh / subme=9 / psy=1 / psy_rd=1.00:0.10 / mixed_ref=1 / me_range=32 / chroma_me=1 / trellis=2 / 8x8dct=1 / cqm=0 / deadzone=21,11 / fast_pskip=0 / chroma_qp_offset=-3 / threads=12 / lookahead_threads=3 / sliced_threads=0 / nr=0 / decimate=1 / interlaced=0 / bluray_compat=0 / constrained_intra=0 / bframes=16 / b_pyramid=2 / b_adapt=2 / b_bias=0 / direct=3 / weightb=1 / open_gop=0 / weightp=2 / keyint=250 / keyint_min=25 / scenecut=40 / intra_refresh=0 / rc_lookahead=40 / rc=2pass / mbtree=0 / bitrate=4600 / ratetol=1.0 / qcomp=0.60 / qpmin=0 / qpmax=69 / qpstep=4 / cplxblur=20.0 / qblur=0.5 / vbv_maxrate=14000 / vbv_bufsize=14000 / nal_hrd=none / filler=0 / ip_ratio=1.40 / pb_ratio=1.30 / aq=1:1.00
Language : English
Default : Yes
Forced : No
Audio #1
ID : 2
Format : AC-3
Format/Info : Audio Coding 3
Mode extension : CM (complete main)
Codec ID : A_AC3
Duration : 1h 35mn
Bit rate mode : Constant
Bit rate : 192 Kbps
Channel(s) : 2 channels
Channel positions : Front: L R
Sampling rate : 48.0 KHz
Bit depth : 16 bits
Compression mode : Lossy
Stream size : 132 MiB (3%)
Title : DVO СОЮЗ Видео
Language : Russian
Default : Yes
Forced : No
Audio #2
ID : 3
Format : AC-3
Format/Info : Audio Coding 3
Mode extension : CM (complete main)
Codec ID : A_AC3
Duration : 1h 35mn
Bit rate mode : Constant
Bit rate : 192 Kbps
Channel(s) : 2 channels
Channel positions : Front: L R
Sampling rate : 48.0 KHz
Bit depth : 16 bits
Compression mode : Lossy
Stream size : 132 MiB (3%)
Title : DVO СТС
Language : Russian
Default : No
Forced : No
Audio #3
ID : 4
Format : AC-3
Format/Info : Audio Coding 3
Mode extension : CM (complete main)
Codec ID : A_AC3
Duration : 1h 35mn
Bit rate mode : Constant
Bit rate : 192 Kbps
Channel(s) : 2 channels
Channel positions : Front: L R
Sampling rate : 48.0 KHz
Bit depth : 16 bits
Compression mode : Lossy
Stream size : 132 MiB (3%)
Title : DVO ICTV
Language : Ukrainian
Default : No
Forced : No
Audio #4
ID : 5
Format : AC-3
Format/Info : Audio Coding 3
Mode extension : CM (complete main)
Codec ID : A_AC3
Duration : 1h 35mn
Bit rate mode : Constant
Bit rate : 640 Kbps
Channel(s) : 2 channels
Channel positions : Front: L R
Sampling rate : 48.0 KHz
Bit depth : 16 bits
Compression mode : Lossy
Stream size : 439 MiB (11%)
Title : Оригинал
Language : English
Default : No
Forced : No

Американский ниндзя 2: Схватка / American Ninja 2: The Confrontation (1987)

- Информация
Название: Американский ниндзя 2: Схватка
Оригинальное название: American Ninja 2: The Confrontation
Год выхода: 1987
Жанр: боевик, мелодрама, приключения
Режиссер: Сэм Фёрстенберг
Сценарий: Гэри Конуэй, Джеймс Бут, Гидеон Амир
Продюсер: Йорам Глобус, Менахем Голан, Ави Лернер
В ролях: Майкл Дудикофф, Стив Джеймс, Ларри Поиндекстер, Гэри Конуэй, Джефф Челентано, Мишель Боутс, Майкл Стоун, Лен Спэрроухок, Джонатан Пиенаар, Билл Керри
--Сюжет:
Действие происходит на острове Святого Томаса в Карибском море, куда американский наемник Джо Армстронг и сержант Кертис Джексон прибывают для расследования таинственного исчезновения группы морских пехотинцев.
Очень скоро они натыкаются на следы чудовищной операции с наркотиками, руководимой могущественным наркодилером по прозвищу Лев. Он похитил пехотинцев, чтобы с помощью генетики создать из них бойцов — ниндзя.
Пара искателей приключений, на помощь к которым приходит дочь местного ученого Алисия Санборн, сражаются со Львом и его армией ниндзя, чтобы навсегда разрушить его дьявольскую империю…
- - Страна: США
Продолжительность: 01:30:37

Файл
Кодек: MPEG4/ISO/AVC H.264
Формат: MKV
Качество: BDRip-AVC | 60 fps
Видео: 1024x552 (1.855) | 59.940 fps | 4.6 Мбит/сек
Аудио 1: AC3 | 2.0 | 48 kHz | 192 kbps | 16 bit | СОЮЗ Видео |
Аудио 2: AC3 | 2.0 | 48 kHz | 192 kbps | 16 bit | СТС |
Аудио 3: AC3 | 2.0 | 48 kHz | 192 kbps | 16 bit | украинский |
Аудио 4: AC3 | 2.0 | 48 kHz | 640 kbps | 16 bit | ENG |

MedifInfo

Video
ID : 1
Format : AVC
Format/Info : Advanced Video Codec
Format profile : High@L4.1
Format settings, CABAC : Yes
Format settings, ReFrames : 4 frames
Codec ID : V_MPEG4/ISO/AVC
Duration : 1h 30mn
Bit rate : 4 600 Kbps
Width : 1 024 pixels
Height : 552 pixels
Display aspect ratio : 1.855
Frame rate : 59.940 fps
Color space : YUV
Chroma subsampling : 4:2:0
Bit depth : 8 bits
Scan type : Progressive
Bits/(Pixel*Frame) : 0.136
Stream size : 2.84 GiB (77%)
Writing library : x264 core 146 r2538 121396c
Encoding settings : cabac=1 / ref=3 / deblock=1:0:0 / analyse=0x3:0x113 / me=umh / subme=9 / psy=1 / psy_rd=1.00:0.10 / mixed_ref=1 / me_range=32 / chroma_me=1 / trellis=2 / 8x8dct=1 / cqm=0 / deadzone=21,11 / fast_pskip=0 / chroma_qp_offset=-3 / threads=12 / lookahead_threads=3 / sliced_threads=0 / nr=0 / decimate=1 / interlaced=0 / bluray_compat=0 / constrained_intra=0 / bframes=16 / b_pyramid=2 / b_adapt=2 / b_bias=0 / direct=3 / weightb=1 / open_gop=0 / weightp=2 / keyint=250 / keyint_min=25 / scenecut=40 / intra_refresh=0 / rc_lookahead=40 / rc=2pass / mbtree=0 / bitrate=4600 / ratetol=1.0 / qcomp=0.60 / qpmin=0 / qpmax=69 / qpstep=4 / cplxblur=20.0 / qblur=0.5 / vbv_maxrate=14000 / vbv_bufsize=14000 / nal_hrd=none / filler=0 / ip_ratio=1.40 / pb_ratio=1.30 / aq=1:1.00
Language : English
Default : Yes
Forced : No
Audio #1
ID : 2
Format : AC-3
Format/Info : Audio Coding 3
Mode extension : CM (complete main)
Codec ID : A_AC3
Duration : 1h 30mn
Bit rate mode : Constant
Bit rate : 192 Kbps
Channel(s) : 2 channels
Channel positions : Front: L R
Sampling rate : 48.0 KHz
Bit depth : 16 bits
Compression mode : Lossy
Stream size : 124 MiB (3%)
Title : DVO СОЮЗ Видео
Language : Russian
Default : Yes
Forced : No
Audio #2
ID : 3
Format : AC-3
Format/Info : Audio Coding 3
Mode extension : CM (complete main)
Codec ID : A_AC3
Duration : 1h 30mn
Bit rate mode : Constant
Bit rate : 192 Kbps
Channel(s) : 2 channels
Channel positions : Front: L R
Sampling rate : 48.0 KHz
Bit depth : 16 bits
Compression mode : Lossy
Stream size : 124 MiB (3%)
Title : DVO СТС
Language : Russian
Default : No
Forced : No
Audio #3
ID : 4
Format : AC-3
Format/Info : Audio Coding 3
Mode extension : CM (complete main)
Codec ID : A_AC3
Duration : 1h 30mn
Bit rate mode : Constant
Bit rate : 192 Kbps
Channel(s) : 2 channels
Channel positions : Front: L R
Sampling rate : 48.0 KHz
Bit depth : 16 bits
Compression mode : Lossy
Stream size : 124 MiB (3%)
Title : DVO ICTV
Language : Ukrainian
Default : No
Forced : No
Audio #4
ID : 5
Format : AC-3
Format/Info : Audio Coding 3
Mode extension : CM (complete main)
Codec ID : A_AC3
Duration : 1h 30mn
Bit rate mode : Constant
Bit rate : 640 Kbps
Channel(s) : 2 channels
Channel positions : Front: L R
Sampling rate : 48.0 KHz
Bit depth : 16 bits
Compression mode : Lossy
Stream size : 415 MiB (11%)
Title : Оригинал
Language : English
Default : No
Forced : No

Американский ниндзя 3: Кровавая охота / American Ninja 3: Blood Hunt (1989)

«Now his most deadly enemy ... is time»- Информация
Название: Американский ниндзя 3: Кровавая охота
Оригинальное название: American Ninja 3: Blood Hunt
Год выхода: 1989
Жанр: боевик, мелодрама, приключения
Режиссер: Седрик Сандстром
Сценарий: Гэри Конуэй, Ави Клайнбергер, Гидеон Амир
Продюсер: Гарри Алан Тауэрс, Ави Лернер, Джон Стодел
В ролях: Дэвид Брэдли, Стив Джеймс, Марджо Гортнер, Мишель Б. Чан, Иегуда Эфрони, Кэлвин Джанг, Эдриэнн Пирс, Ивэн Дж. Клиссер, Грант Престон, Майкл Хафф
--Сюжет:
Шон Дэвидсон, потерявший родителей и воспитанный учителем-японцем в традициях ниндзя, приезжает на международный турнир каратэ. Злоумышленники разрабатывают здесь в секретной лаборатории смертоносный вирус, чтобы испытать его на победителе чемпионата. Но американский ниндзя и двое его друзей сокрушают лабораторию, спасая мир.- - Страна: США, Канада, ЮАР
Продолжительность: 01:29:52

Файл
Кодек: MPEG4/ISO/AVC H.264
Формат: MKV
Качество: BDRip-AVC | 60 fps
Видео: 1024x552 (1.855) | 59.940 fps | 4.6 Мбит/сек
Аудио 1: AC3 | 2.0 | 48 kHz | 192 kbps | 16 bit | СТС |
Аудио 2: AC3 | 2.0 | 48 kHz | 192 kbps | 16 bit | ДТВ |
Аудио 3: AC3 | 2.0 | 48 kHz | 192 kbps | 16 bit | украинский |
Аудио 4: AC3 | 2.0 | 48 kHz | 640 kbps | 16 bit | ENG |

MedifInfo

Video
ID : 1
Format : AVC
Format/Info : Advanced Video Codec
Format profile : High@L4.1
Format settings, CABAC : Yes
Format settings, ReFrames : 4 frames
Codec ID : V_MPEG4/ISO/AVC
Duration : 1h 29mn
Bit rate : 4 600 Kbps
Width : 1 024 pixels
Height : 552 pixels
Display aspect ratio : 1.855
Frame rate : 59.940 fps
Color space : YUV
Chroma subsampling : 4:2:0
Bit depth : 8 bits
Scan type : Progressive
Bits/(Pixel*Frame) : 0.136
Stream size : 2.82 GiB (77%)
Writing library : x264 core 146 r2538 121396c
Encoding settings : cabac=1 / ref=3 / deblock=1:0:0 / analyse=0x3:0x113 / me=umh / subme=9 / psy=1 / psy_rd=1.00:0.10 / mixed_ref=1 / me_range=32 / chroma_me=1 / trellis=2 / 8x8dct=1 / cqm=0 / deadzone=21,11 / fast_pskip=0 / chroma_qp_offset=-3 / threads=12 / lookahead_threads=3 / sliced_threads=0 / nr=0 / decimate=1 / interlaced=0 / bluray_compat=0 / constrained_intra=0 / bframes=16 / b_pyramid=2 / b_adapt=2 / b_bias=0 / direct=3 / weightb=1 / open_gop=0 / weightp=2 / keyint=250 / keyint_min=25 / scenecut=40 / intra_refresh=0 / rc_lookahead=40 / rc=2pass / mbtree=0 / bitrate=4600 / ratetol=1.0 / qcomp=0.60 / qpmin=0 / qpmax=69 / qpstep=4 / cplxblur=20.0 / qblur=0.5 / vbv_maxrate=14000 / vbv_bufsize=14000 / nal_hrd=none / filler=0 / ip_ratio=1.40 / pb_ratio=1.30 / aq=1:1.00
Language : English
Default : Yes
Forced : No
Audio #1
ID : 2
Format : AC-3
Format/Info : Audio Coding 3
Mode extension : CM (complete main)
Codec ID : A_AC3
Duration : 1h 29mn
Bit rate mode : Constant
Bit rate : 192 Kbps
Channel(s) : 2 channels
Channel positions : Front: L R
Sampling rate : 48.0 KHz
Bit depth : 16 bits
Compression mode : Lossy
Stream size : 123 MiB (3%)
Title : DVO СТС
Language : Russian
Default : Yes
Forced : No
Audio #2
ID : 3
Format : AC-3
Format/Info : Audio Coding 3
Mode extension : CM (complete main)
Codec ID : A_AC3
Duration : 1h 29mn
Bit rate mode : Constant
Bit rate : 192 Kbps
Channel(s) : 2 channels
Channel positions : Front: L R
Sampling rate : 48.0 KHz
Bit depth : 16 bits
Compression mode : Lossy
Stream size : 123 MiB (3%)
Title : DVO ДТВ
Language : Russian
Default : No
Forced : No
Audio #3
ID : 4
Format : AC-3
Format/Info : Audio Coding 3
Mode extension : CM (complete main)
Codec ID : A_AC3
Duration : 1h 29mn
Bit rate mode : Constant
Bit rate : 192 Kbps
Channel(s) : 2 channels
Channel positions : Front: L R
Sampling rate : 48.0 KHz
Bit depth : 16 bits
Compression mode : Lossy
Stream size : 123 MiB (3%)
Title : DVO Inter
Language : Ukrainian
Default : No
Forced : No
Audio #4
ID : 5
Format : AC-3
Format/Info : Audio Coding 3
Mode extension : CM (complete main)
Codec ID : A_AC3
Duration : 1h 29mn
Bit rate mode : Constant
Bit rate : 640 Kbps
Channel(s) : 2 channels
Channel positions : Front: L R
Sampling rate : 48.0 KHz
Bit depth : 16 bits
Compression mode : Lossy
Stream size : 411 MiB (11%)
Title : Оригинал
Language : English
Default : No
Forced : No

Американский ниндзя 4: Полное уничтожение / American Ninja 4: The Annihilation (1990)

- Информация
Название: Американский ниндзя 4: Полное уничтожение
Оригинальное название: American Ninja 4: The Annihilation
Год выхода: 1990
Жанр: боевик, мелодрама, приключения
Режиссер: Седрик Сандстром
Сценарий: Джеймс Бут, Гидеон Амир, Ави Клайнбергер
Продюсер: Овидио Г. Ассонитис, Кристофер Пирс, Ави Лернер
В ролях: Майкл Дудикофф, Дэвид Брэдли, Джеймс Бут, Дуэйн Александр, Кен Гампу, Робин Стилл, Франц Добровски, Рон Смержак, Кили МакКланг, Джоди Абрахамс
--Сюжет:
Бывший полковник, садист и убийца, тренирует террористов и ниндзя шейха из какого-то арабского государства, задумавшего взорвать Нью-Йорк при помощи изготовленной в тайной лаборатории миниатюрной атомной бомбы. Команда подразделения «Дельта», посланная уничтожить злодеев, потерпела поражение, а оставшиеся в живых стали заложниками.
Полицейского-ниндзю вместе с напарником посылают с заданием обезвредить маньяков. В самый тяжелый момент к нашим героям присоединится самый первый и главный американский ниндзя. Вместе они разносят на куски целую армию ниндзя и прочих бандитов.
- - Страна: США
Продолжительность: 01:39:36

Файл
Кодек: MPEG4/ISO/AVC H.264
Формат: MKV
Качество: BDRip-AVC | 60 fps
Видео: 1024x552 (1.855) | 59.940 fps | 4.4 Мбит/сек
Аудио 1: AC3 | 2.0 | 48 kHz | 192 kbps | 16 bit | ДТВ |
Аудио 2: AC3 | 2.0 | 48 kHz | 192 kbps | 16 bit | НТВ+ |
Аудио 3: AC3 | 2.0 | 48 kHz | 192 kbps | 16 bit | украинский |
Аудио 4: AC3 | 2.0 | 48 kHz | 640 kbps | 16 bit | ENG |

MedifInfo

Video
ID : 1
Format : AVC
Format/Info : Advanced Video Codec
Format profile : High@L4.1
Format settings, CABAC : Yes
Format settings, ReFrames : 4 frames
Codec ID : V_MPEG4/ISO/AVC
Duration : 1h 39mn
Bit rate : 4 450 Kbps
Width : 1 024 pixels
Height : 552 pixels
Display aspect ratio : 1.855
Frame rate : 59.940 fps
Color space : YUV
Chroma subsampling : 4:2:0
Bit depth : 8 bits
Scan type : Progressive
Bits/(Pixel*Frame) : 0.131
Stream size : 3.02 GiB (77%)
Writing library : x264 core 146 r2538 121396c
Encoding settings : cabac=1 / ref=3 / deblock=1:0:0 / analyse=0x3:0x113 / me=umh / subme=9 / psy=1 / psy_rd=1.00:0.10 / mixed_ref=1 / me_range=32 / chroma_me=1 / trellis=2 / 8x8dct=1 / cqm=0 / deadzone=21,11 / fast_pskip=0 / chroma_qp_offset=-3 / threads=12 / lookahead_threads=3 / sliced_threads=0 / nr=0 / decimate=1 / interlaced=0 / bluray_compat=0 / constrained_intra=0 / bframes=16 / b_pyramid=2 / b_adapt=2 / b_bias=0 / direct=3 / weightb=1 / open_gop=0 / weightp=2 / keyint=250 / keyint_min=25 / scenecut=40 / intra_refresh=0 / rc_lookahead=40 / rc=2pass / mbtree=0 / bitrate=4450 / ratetol=1.0 / qcomp=0.60 / qpmin=0 / qpmax=69 / qpstep=4 / cplxblur=20.0 / qblur=0.5 / vbv_maxrate=14000 / vbv_bufsize=14000 / nal_hrd=none / filler=0 / ip_ratio=1.40 / pb_ratio=1.30 / aq=1:1.00
Language : English
Default : Yes
Forced : No
Audio #1
ID : 2
Format : AC-3
Format/Info : Audio Coding 3
Mode extension : CM (complete main)
Codec ID : A_AC3
Duration : 1h 39mn
Bit rate mode : Constant
Bit rate : 192 Kbps
Channel(s) : 2 channels
Channel positions : Front: L R
Sampling rate : 48.0 KHz
Bit depth : 16 bits
Compression mode : Lossy
Stream size : 137 MiB (3%)
Title : DVO ДТВ
Language : Russian
Default : Yes
Forced : No
Audio #2
ID : 3
Format : AC-3
Format/Info : Audio Coding 3
Mode extension : CM (complete main)
Codec ID : A_AC3
Duration : 1h 39mn
Bit rate mode : Constant
Bit rate : 192 Kbps
Channel(s) : 2 channels
Channel positions : Front: L R
Sampling rate : 48.0 KHz
Bit depth : 16 bits
Compression mode : Lossy
Stream size : 137 MiB (3%)
Title : DVO НТВ+
Language : Russian
Default : No
Forced : No
Audio #3
ID : 4
Format : AC-3
Format/Info : Audio Coding 3
Mode extension : CM (complete main)
Codec ID : A_AC3
Duration : 1h 39mn
Bit rate mode : Constant
Bit rate : 192 Kbps
Channel(s) : 2 channels
Channel positions : Front: L R
Sampling rate : 48.0 KHz
Bit depth : 16 bits
Compression mode : Lossy
Stream size : 137 MiB (3%)
Title : DVO ICTV
Language : Ukrainian
Default : No
Forced : No
Audio #4
ID : 5
Format : AC-3
Format/Info : Audio Coding 3
Mode extension : CM (complete main)
Codec ID : A_AC3
Duration : 1h 39mn
Bit rate mode : Constant
Bit rate : 640 Kbps
Channel(s) : 2 channels
Channel positions : Front: L R
Sampling rate : 48.0 KHz
Bit depth : 16 bits
Compression mode : Lossy
Stream size : 456 MiB (11%)
Title : Оригинал
Language : English
Default : No
Forced : No

[Цитировать]
rembo1410

спасибо!вспомню молодость! Плачу
 
Показать сообщения:    

Текущее время: 08-Дек 09:00

Часовой пояс: UTC + 3


Вы не можете начинать темы
Вы не можете отвечать на сообщения
Вы не можете редактировать свои сообщения
Вы не можете удалять свои сообщения
Вы не можете голосовать в опросах
Вы не можете прикреплять файлы к сообщениям
Вы не можете скачивать файлы