[Цитировать]
Kryl

Alizee - En concert (2004) DVDRip | 60 fps- Информация
Исполнитель: Alizee
Название: En concert
Год выхода: 2004
Прoизводство: Requiem Publishing
Жанр: Концерт, Pop
Описание:
Ализе начала усиленно готовится к своему первому концертному турне. Оно началось 26 августа 2003 г. с Парижа, где Ализе в зале "Олимпия" дала подряд семь концертов. После замечательных шоу в "Олимпии", Ализе отправилась на три месяца путешествовать с концертами не только по всей Франции, но, а также Бельгии и Швейцарии. Апогеем турне был концерт в "Le Zénith" (Париж) 17 января 2004 г... Настоящее красочное шоу, как говорит сама Ализе. На фоне необычной декорации в виде розовой туфельки Ализе подарила залу свои 17 песен из двух альбомов.
Продолжительность: 01:30:37
Качество видео: DVDRip
Перевод: Отсутствует
Видео: AVC/H.264, 720x400, ~3500 kbps
Аудио: DTS, 6 ch, 755 kbps

Треклист

01. Intralizee
02. L'Alizee
03. Hey! Amigo!
04. Toc De Mac
05. J'en Ai Marrie!
06. Lui Ou Toi
07. Gourmandises
08. L'E-Mail A Des Ailes
09. Mon Maquis
10. J.B.G.
11. Moi... Lolita
12. Amelie M'a Dit
13. Parler Tout Bas
14. C'est Trop Tard
15. Youpidou
16. Tempete
17. A Countre-Courant
18. J'ai Pas Vingt Ans

Mediainfo

General
Unique ID : 238495025633968045321585721560785556954 (0xB36C789CFF43B9A78375A7EDB66D15DA)
Complete name : E:\data\alizee\En_concert.mkv
Format : Matroska
Format version : Version 2
File size : 2.69 GiB
Duration : 1h 30mn
Overall bit rate : 4 257 Kbps
Encoded date : UTC 2015-11-23 17:38:50
Writing application : mkvmerge v8.5.1 ('Where you lead I will follow') 64bit
Writing library : libebml v1.3.3 + libmatroska v1.4.4
DURATION : 01:30:36.733000000
NUMBER_OF_FRAMES : 326204
NUMBER_OF_BYTES : 2377263151
_STATISTICS_WRITING_APP : mkvmerge v8.5.1 ('Where you lead I will follow') 64bit
_STATISTICS_WRITING_DATE_UTC : 2015-11-23 17:38:50
_STATISTICS_TAGS : BPS DURATION NUMBER_OF_FRAMES NUMBER_OF_BYTES
Video
ID : 2
Format : AVC
Format/Info : Advanced Video Codec
Format profile : High@L3.1
Format settings, CABAC : Yes
Format settings, ReFrames : 5 frames
Codec ID : V_MPEG4/ISO/AVC
Duration : 1h 30mn
Bit rate : 3 500 Kbps
Width : 720 pixels
Height : 576 pixels
Display aspect ratio : 1.85:1
Frame rate mode : Constant
Frame rate : 60.000 fps
Standard : PAL
Color space : YUV
Chroma subsampling : 4:2:0
Bit depth : 8 bits
Scan type : Progressive
Bits/(Pixel*Frame) : 0.141
Stream size : 2.16 GiB (80%)
Writing library : x264 core 146 r2538 121396c
Encoding settings : cabac=1 / ref=5 / deblock=1:-1:-1 / analyse=0x3:0x113 / me=umh / subme=8 / psy=1 / psy_rd=1.00:0.15 / mixed_ref=1 / me_range=16 / chroma_me=1 / trellis=1 / 8x8dct=1 / cqm=0 / deadzone=21,11 / fast_pskip=1 / chroma_qp_offset=-3 / threads=6 / lookahead_threads=1 / sliced_threads=0 / nr=0 / decimate=1 / interlaced=0 / bluray_compat=0 / constrained_intra=0 / bframes=3 / b_pyramid=2 / b_adapt=2 / b_bias=0 / direct=3 / weightb=1 / open_gop=0 / weightp=2 / keyint=600 / keyint_min=60 / scenecut=40 / intra_refresh=0 / rc_lookahead=50 / rc=2pass / mbtree=1 / bitrate=3500 / ratetol=1.0 / qcomp=0.60 / qpmin=0 / qpmax=69 / qpstep=4 / cplxblur=20.0 / qblur=0.5 / ip_ratio=1.40 / aq=1:1.00
Default : Yes
Forced : No
Audio
ID : 1
Format : DTS
Format/Info : Digital Theater Systems
Mode : 16
Format settings, Endianness : Big
Codec ID : A_DTS
Duration : 1h 30mn
Bit rate mode : Constant
Bit rate : 755 Kbps
Channel(s) : 6 channels
Channel positions : Front: L C R, Side: L R, LFE
Sampling rate : 48.0 KHz
Bit depth : 16 bits
Compression mode : Lossy
Stream size : 489 MiB (18%)
Title : DTS, 48000Hz, 5.1, 755 kb/s
Language : English
Default : Yes
Forced : No
Menu
00:00:00.000 : :Intralizee
00:02:02.920 : :L'Alizee
00:06:40.520 : :Hey! Amigo!
00:10:45.800 : :Toc De Mac
00:15:17.160 : :J'en Ai Marrie!
00:21:27.400 : :Lui Ou Toi
00:25:49.520 : :Gourmandises
00:30:54.640 : :L'E-Mail A Des Ailes
00:34:57.880 : :Mon Maquis
00:40:39.000 : :J.B.G.
00:44:45.480 : :Moi... Lolita
00:53:06.080 : :Amelie M'a Dit
00:57:00.600 : :Parler Tout Bas
01:02:24.520 : :C'est Trop Tard
01:07:58.040 : :Youpidou
01:12:16.400 : :Tempete
01:16:57.480 : :A Countre-Courant
01:24:25.000 : :J'ai Pas Vingt Ans
01:28:55.240 : :Generique

[Цитировать]
Эдуард1991

А почему не HDTV?

[Цитировать]
Kryl

Это не моя поделка .

[Цитировать]
Эдуард1991

Сделайте пожалуйста старые клипы и концертные записи песен Alizee. Спасибо
 
Показать сообщения:    

Текущее время: 07-Дек 19:22

Часовой пояс: UTC + 3


Вы не можете начинать темы
Вы не можете отвечать на сообщения
Вы не можете редактировать свои сообщения
Вы не можете удалять свои сообщения
Вы не можете голосовать в опросах
Вы не можете прикреплять файлы к сообщениям
Вы не можете скачивать файлы