[Цитировать]
Kryl

«Весна - самое время сойти с ума»- Информация
Название: Алиса в Зазеркалье
Оригинальное название: Alice Through the Looking Glass
Год выхода: 2016
Жанр: Фэнтези, приключения, семейный, эранизация
Режиссер: Джеймс Бобин
Сценарий: Линда Вулвертон, Льюис Кэрролл
Продюсер: Тим Бёртон, Джо Рот, Дженнифер Тодд
В ролях: Миа Васиковска, Джонни Депп, Клаудио Энкарнасьон Монтеро, Саша Барон Коэн, Энн Хэтэуэй, Хелена Бонем Картер, Алан Рикман, Эндрю Скотт, Майкл Шин, Рис Иванс
--Сюжет:
На этот раз главной героине предстоит отправиться в путешествие во времени, полное неожиданностей и ярких открытий, чтобы спасти своего друга, Безумного Шляпника.- Страна: США, Великобритания
Продолжительность: 01:52:57

Файл
Кодек: MPEG4/ISO/AVC/H.264
Формат: MKV
Качество: BDRip 720p | 60 fps
Видео: 1280 x 690 (1.855) | 59.940 fps | 12.0 Мбит/сек
Аудио 1: AC3 | 5.1 | 48 kHz | 640 kbps | 16 bit | Дубляж |
Аудио 2: AC3 | 5.1 | 48 kHz | 448 kbps | 16 bit | ENG |
Субтитры: Русские, Eng

MedifInfo

Видео
Идентификатор : 1
Формат : AVC
Формат/Информация : Advanced Video Codec
Профиль формата : High@L4.1
Параметр CABAC формата : Да
Параметр ReFrames формата : 3 кадра
Идентификатор кодека : V_MPEG4/ISO/AVC
Продолжительность : 1 ч. 52 м.
Вид битрейта : Переменный
Битрейт : 11,7 Мбит/сек
Максимальный битрейт : 12,0 Мбит/сек
Ширина : 1280 пикселей
Высота : 690 пикселей
Соотношение сторон : 1,85:1
Режим частоты кадров : Постоянный
Частота кадров : 59,880 кадров/сек
Частота кадров в оригинале : 59,940 кадров/сек
Стандарт вещания : PAL
Цветовое пространство : YUV
Субдискретизация насыщенности : 4:2:0
Битовая глубина : 8 бит
Тип развёртки : Прогрессивная
Бит/(Пиксели*Кадры) : 0.222
Размер потока : 9,26 Гбайт (90%)
Заголовок : www.60-fps.org
Язык : English
Default : Да
Forced : Нет
Основные цвета : BT.709
Характеристики трансфера : BT.709
Коэффициенты матрицы : BT.709
colour_range : Limited
Аудио #1
Идентификатор : 2
Формат : AC-3
Формат/Информация : Audio Coding 3
Расширение режима : CM (complete main)
Параметр Endianness формата : Big
Идентификатор кодека : A_AC3
Продолжительность : 1 ч. 52 м.
Вид битрейта : Постоянный
Битрейт : 640 Кбит/сек
Каналы : 6 каналов
Расположение каналов : Front: L C R, Side: L R, LFE
Частота : 48,0 КГц
Битовая глубина : 16 бит
Метод сжатия : С потерями
Размер потока : 517 Мбайт (5%)
Заголовок : Дубляж
Язык : Russian
Default : Да
Forced : Нет
Аудио #2
Идентификатор : 3
Формат : AC-3
Формат/Информация : Audio Coding 3
Расширение режима : CM (complete main)
Параметр Endianness формата : Big
Идентификатор кодека : A_AC3
Продолжительность : 1 ч. 52 м.
Вид битрейта : Постоянный
Битрейт : 448 Кбит/сек
Каналы : 6 каналов
Расположение каналов : Front: L C R, Side: L R, LFE
Частота : 48,0 КГц
Битовая глубина : 16 бит
Метод сжатия : С потерями
Размер потока : 362 Мбайт (3%)
Заголовок : Eng
Язык : English
Default : Нет
Forced : Нет
Текст #1
Идентификатор : 4
Формат : UTF-8
Идентификатор кодека : S_TEXT/UTF8
Идентификатор кодека/Информация : UTF-8 Plain Text
Заголовок : forced
Язык : Russian
Default : Да
Forced : Нет
Текст #2
Идентификатор : 5
Формат : UTF-8
Идентификатор кодека : S_TEXT/UTF8
Идентификатор кодека/Информация : UTF-8 Plain Text
Язык : Russian
Default : Нет
Forced : Нет
Текст #3
Идентификатор : 6
Формат : UTF-8
Идентификатор кодека : S_TEXT/UTF8
Идентификатор кодека/Информация : UTF-8 Plain Text
Заголовок : forced
Язык : English
Default : Нет
Forced : Нет
Текст #4
Идентификатор : 7
Формат : UTF-8
Идентификатор кодека : S_TEXT/UTF8
Идентификатор кодека/Информация : UTF-8 Plain Text
Язык : English
Default : Нет
Forced : Нет
Меню
00:00:00.000 : en:Navigating The Wonder
00:04:33.189 : en:Return Home
00:07:24.235 : en:Canceled Plans
00:12:07.434 : en:Through The Looking Glass
00:16:39.789 : en:Old Friends
00:22:47.615 : en:Chronosphere
00:24:59.623 : en:Time's Castle
00:30:18.232 : en:The Grand Clock
00:35:29.792 : en:Arrival Of The Red Queen
00:41:32.988 : en:Ocean Of Time
00:45:20.050 : en:Coronation
00:51:35.675 : en:Warning The Hatter
00:54:11.038 : en:Tea Party With Time
00:57:40.122 : en:Tart Trouble
01:04:18.521 : en:"The Stroke Of Six"
01:09:18.988 : en:Escape From The Asylum
01:12:46.278 : en:Horunvendush Day
01:18:07.390 : en:Red Queen's Lair
01:23:20.244 : en:Changing The Past
01:27:34.747 : en:Running Out Of Time
01:32:15.947 : en:Family Reunion
01:36:40.461 : en:Goodbyes
01:40:12.588 : en:Setting Sail
01:43:14.813 : en:End Credits

Релиз подготовлен 60 - fps

[Цитировать]
ENIGMA

Огромное Спасибо Овации Овации Овации
 
Показать сообщения:    

Текущее время: 10-Дек 19:39

Часовой пояс: UTC + 3


Вы не можете начинать темы
Вы не можете отвечать на сообщения
Вы не можете редактировать свои сообщения
Вы не можете удалять свои сообщения
Вы не можете голосовать в опросах
Вы не можете прикреплять файлы к сообщениям
Вы не можете скачивать файлы