-Название: Алиса в стране чудес
Оригинальное название: Alice in Wonderland
Год выпуска: 1951
Страна: США
Жанр: мультфильм, мюзикл, фэнтези, приключения, семейный
Продолжительность: 01:15:16
Перевод: Дубляж
Субтитры: русские (Форсированные), русские (Полные), английские (Полные)-Режиссер: Клайд Джероними / Clyde Geronimi, Уилфред Джексон / Wilfred Jackson, Хэмильтон Ласки / Hamilton Luske-В ролях: Катрин Бомонт (Alice, озвучка), Эд Винн (Mad Hatter, озвучка), Ричард Хейдн (Caterpillar, озвучка), Стерлинг Холлоуэй (Cheshire Cat, озвучка), Джерри Колонна (March Hare, озвучка), Верна Фелтон (Queen of Hearts, озвучка), Дж. Пэт О’Мэлли (Walrus / Carpenter / Dee / Dum, озвучка), Билл Томпсон (White Rabbit / Dodo, озвучка), Хэзер Эйнджел (Alice's Sister, озвучка), Джозеф Кернс (Doorknob, озвучка), Ларри Грэй (Bill, озвучка), Куини Леонард (Bird in the Tree, озвучка)-Описание:
Убежав из дома, Алиса увидела под старой яблоней большого белого кролика, одетого в куртку и жилет. Достав из кармана часы, кролик торопливо скрылся в подозрительно темной норе. Набравшись смелости, Алиса шагнула вслед за ним...и попала в чудесный сказочный мир, где сбываются самые несбыточные фантазии.
Чтобы попасть обратно домой, Алисе придется совершить путешествие через весь этот странный и причудливый мир, в котором ее поджидают совершенно невероятные приключения и совершенно фантастические существа...-Рейтинг

imdb.com: 7.40 (76 354)
MPAA: G - Нет возрастных ограничений-Качество: BDRip 1080p / 60 FPS
Формат: MKV
Видео кодек: AVC
Аудио кодек:AC3
Видео: AVC, 1424x1080, 10000 kbps, 59,940 fps
Аудио №1: русский / AC3 / 5.1 / 48 kHz / 640 kbps / 16 bit |Дубляж|
Аудио №2: русский / AC3 / 5.1 / 48 kHz / 448 kbps / 16 bit |Многоголосный, закадровый|
Аудио №3: английский / AC3 / 5.1 / 48 kHz / 640 kbps / 16 bit
Навигация по главам: есть-

Внимание!

Перед скачиванием обязательно проверьте сэмпл на своем оборудовании.

MI

General
Unique ID : 245545614810599975103711311622369881062 (0xB8BA5D7F8F85DF369C7158336392ABE6)
Complete name : A:1080p 60fpsАлиса в стране чудес 1951 1080p 60fps.mkv
Format : Matroska
Format version : Version 4 / Version 2
File size : 6.17 GiB
Duration : 1h 15mn
Overall bit rate : 11.7 Mbps
Encoded date : UTC 2014-10-06 15:42:16
Writing application : mkvmerge v6.9.1 ('Blue Panther') 64bit built on Apr 18 2014 18:23:38
Writing library : libebml v1.3.0 + libmatroska v1.4.1
Attachment : Yes
Video
ID : 1
Format : AVC
Format/Info : Advanced Video Codec
Format profile : High@L4.1
Format settings, CABAC : Yes
Format settings, ReFrames : 4 frames
Codec ID : V_MPEG4/ISO/AVC
Duration : 1h 15mn
Bit rate : 10 000 Kbps
Width : 1 424 pixels
Height : 1 080 pixels
Display aspect ratio : 4:3
Frame rate : 59.940 fps
Color space : YUV
Chroma subsampling : 4:2:0
Bit depth : 8 bits
Scan type : Progressive
Bits/(Pixel*Frame) : 0.108
Stream size : 5.14 GiB (83%)
Writing library : x264 core 130 r2273 b3065e6
Encoding settings : cabac=1 / ref=4 / deblock=1:-1:-1 / analyse=0x3:0 / me=umh / subme=9 / psy=1 / psy_rd=0.80:0.00 / mixed_ref=1 / me_range=42 / chroma_me=0 / trellis=2 / 8x8dct=1 / cqm=0 / deadzone=21,11 / fast_pskip=0 / chroma_qp_offset=-2 / threads=12 / lookahead_threads=1 / sliced_threads=0 / nr=0 / decimate=0 / interlaced=0 / bluray_compat=0 / constrained_intra=0 / bframes=5 / b_pyramid=2 / b_adapt=2 / b_bias=0 / direct=3 / weightb=1 / open_gop=0 / weightp=2 / keyint=250 / keyint_min=59 / scenecut=40 / intra_refresh=0 / rc_lookahead=60 / rc=2pass / mbtree=1 / bitrate=10000 / ratetol=1.0 / qcomp=0.80 / qpmin=0 / qpmax=69 / qpstep=4 / cplxblur=20.0 / qblur=0.5 / ip_ratio=1.40 / aq=1:0.80
Language : English
Default : Yes
Forced : No
Audio #1
ID : 2
Format : AC-3
Format/Info : Audio Coding 3
Mode extension : CM (complete main)
Codec ID : A_AC3
Duration : 1h 15mn
Bit rate mode : Constant
Bit rate : 640 Kbps
Channel(s) : 6 channels
Channel positions : Front: L C R, Side: L R, LFE
Sampling rate : 48.0 KHz
Bit depth : 16 bits
Compression mode : Lossy
Stream size : 345 MiB (5%)
Title : Дубляж
Language : Russian
Default : Yes
Forced : No
Audio #2
ID : 3
Format : AC-3
Format/Info : Audio Coding 3
Mode extension : CM (complete main)
Codec ID : A_AC3
Duration : 1h 15mn
Bit rate mode : Constant
Bit rate : 448 Kbps
Channel(s) : 6 channels
Channel positions : Front: L C R, Side: L R, LFE
Sampling rate : 48.0 KHz
Bit depth : 16 bits
Compression mode : Lossy
Stream size : 241 MiB (4%)
Title : Многоголосный, закадровый
Language : Russian
Default : No
Forced : No
Audio #3
ID : 4
Format : AC-3
Format/Info : Audio Coding 3
Mode extension : CM (complete main)
Codec ID : A_AC3
Duration : 1h 15mn
Bit rate mode : Constant
Bit rate : 640 Kbps
Channel(s) : 6 channels
Channel positions : Front: L C R, Side: L R, LFE
Sampling rate : 48.0 KHz
Bit depth : 16 bits
Compression mode : Lossy
Stream size : 345 MiB (5%)
Title : Оригинал
Language : English
Default : No
Forced : No
Text #1
ID : 5
Format : UTF-8
Codec ID : S_TEXT/UTF8
Codec ID/Info : UTF-8 Plain Text
Title : Форсированные
Language : Russian
Default : Yes
Forced : No
Text #2
ID : 6
Format : UTF-8
Codec ID : S_TEXT/UTF8
Codec ID/Info : UTF-8 Plain Text
Title : Полные
Language : Russian
Default : No
Forced : No
Text #3
ID : 7
Format : UTF-8
Codec ID : S_TEXT/UTF8
Codec ID/Info : UTF-8 Plain Text
Title : Полные
Language : English
Default : No
Forced : No
Menu
00:00:00.000 : en:Opening Credits ("Alice in Wonderland")
00:01:42.102 : en:Alice's History Lesson
00:02:58.011 : en:"In A World of My Own"
00:04:48.622 : en:The White Rabbit ("I'm Late")
00:07:28.740 : en:Curlouser and Curlouser
00:08:11.658 : en:The Bottle On The Table
00:10:33.091 : en:Through the Keyhole in a Bottle
00:13:14.711 : en:Alice Meets Tweedledee and Tweedledum ("How D'Ye Do And Shake hands")
00:15:03.528 : en:"The Walrus and the Carpenter"
00:20:53.252 : en:The White Rabbit's House
00:22:47.074 : en:A Lizard With a Ladder
00:26:21.413 : en:A Garden of Talking Flowers
00:27:16.677 : en:"All in The Golden Afternoon"
00:31:50.075 : en:Advice From a Caterpillar
00:36:34.234 : en:More Ups and Downs for Alice
00:38:30.141 : en:The Cheshire Cat
00:41:36.661 : en:A Mad Tea Party ("The Unbirthday Song")
00:47:45.488 : en:Who's Got The Time?
00:50:00.623 : en:The Tulgey Wood
00:53:58.569 : en:"Very Good Advice"
00:56:08.865 : en:The Cheshire Cat AGain
00:57:18.435 : en:"Painting The Roses Red"
00:58:58.910 : en:The March of the Cards
01:00:09.981 : en:The Queen of Hearts
01:02:35.710 : en:A Game of Croquet
01:06:52.050 : en:Alice's Trial
01:11:29.785 : en:The Chase

Скриншоты

Топик был перенесен из форума Зарубежные фильмы 60fps в форум Мультфильмы 60fps
KRYL

[Цитировать]
ZHz

ссылка на семпл ведет на википедию (https://ru.wikipedia.org/wiki/RS-232)

[Цитировать]
Kryl

Просто на те фильмы которые сделаны давно семплов нет , а качать что бы семпл сделать ... :)

[Цитировать]
ZHz

Ну у кого то должен быть фильм, не просто так же от тут валяется, у Tiberiumsun69 например.

[Цитировать]
Kryl

Не факт ... У меня много сделано было почти всё удалил ... так что тут свободное оформление )))

[Цитировать]
Kryl

...

[Цитировать]
mimok

130... ... У меня много сделано было почти всё удалил ... ...
и не жалко эксклюзива?

[Цитировать]
Kryl

Да нет , то что надо было оставил , а так представь сколько места занимало .. ))
 
Показать сообщения:    

Текущее время: 11-Дек 07:06

Часовой пояс: UTC + 3


Вы не можете начинать темы
Вы не можете отвечать на сообщения
Вы не можете редактировать свои сообщения
Вы не можете удалять свои сообщения
Вы не можете голосовать в опросах
Вы не можете прикреплять файлы к сообщениям
Вы не можете скачивать файлы