Rammstein (БЕЗ ЦЕНЗУРЫ)| WEBRip 1080p | 60 fps Britney Spears - Oops! I Did It Again Uncut (2009) HD 1080p | 60 fps Jennifer Lopez ft. Iggy Azalea - Booty (2014) Full HD 1080p | 60 fps Britney Spears - ...Baby One More Time (2009) Full HD 1080p | 60 fps BLACKPINK | WEBRip 1080p | 60 fps Dan Balan - Chica Bomb (2010) WEBRip 1080p | 60 fps Lady Gaga - Poker Face (2009) Full HD 1080p | 60 fps Sia - Chandelier (2014 ) Full HD 1080p | 60 fps
  1. Longevity:
    6 years 1 month
    Posts:
    2418
    Gender:
    Male
    -Alexandra Stan feat. Carlprit - One Million (2011) HDCam 1080p | 60 fps- -Информация о Клипе
    Исполнитель: Alexandra Stan feat. Carlprit
    Название: One Million
    Год выхода: 2011
    Продолжительность: 00:03:19-Файл
    Кодек: MPEG4/ISO/AVC/ H.264
    Формат: MKV
    Качество: HDCam 1080p
    Видео : 1920 x 808 (2.376) at 60.000 fps 24.5 Мбит/сек
    Аудио : MP3 | 320 Kbps | 44,1 KHz | 2.0 channels

    MI

    Видео
    Идентификатор : 1
    Формат : AVC
    Формат/Информация : Advanced Video Codec
    Профиль формата : Main@L4.2
    Параметр CABAC формата : Да
    Параметр ReFrames формата : 3 кадра
    Идентификатор кодека : V_MPEG4/ISO/AVC
    Продолжительность : 3 м. 19 с.
    Битрейт : 24,5 Мбит/сек
    Ширина : 1920 пикселей
    Высота : 808 пикселей
    Соотношение сторон : 2,40:1
    Режим частоты кадров : Постоянный
    Частота кадров : 60,000 кадров/сек
    Стандарт вещания : PAL
    Цветовое пространство : YUV
    Субдискретизация насыщенности : 4:2:0
    Битовая глубина : 8 бит
    Тип развёртки : Прогрессивная
    Бит/(Пиксели*Кадры) : 0.263
    Размер потока : 582 Мбайт (97%)
    Заголовок : www.60-fps.org
    Язык : English
    Default : Да
    Forced : Нет
    Основные цвета : BT.709
    Характеристики трансфера : BT.709
    Коэффициенты матрицы : BT.709
    colour_range : Limited
    Аудио
    Идентификатор : 2
    Формат : MPEG Audio
    Версия формата : Version 1
    Профиль формата : Layer 3
    Режим : Joint stereo
    Идентификатор кодека : A_MPEG/L3
    Идентификатор кодека/Подсказка : MP3
    Продолжительность : 3 м. 19 с.
    Вид битрейта : Постоянный
    Битрейт : 320 Кбит/сек
    Каналы : 2 канала
    Частота : 44,1 КГц
    Метод сжатия : С потерями
    Размер потока : 7,61 Мбайт (1%)
    Заголовок : MP3
    Библиотека кодирования : LAME3.99.5
    Default : Да
    Forced : Нет

    Release was prepared by 60 - fps



You cannot post new topics in this forum
You cannot reply to topics in this forum
You cannot edit your posts in this forum
You cannot delete your posts in this forum
You cannot vote in polls in this forum
You cannot attach files in this forum
You cannot download files in this forum