1. Longevity:
    4 years 8 months
    Posts:
    319
    Gender:
    Male
    --Alexandra Stan - Cherry Pop (2014) Full HD 1080p | 60 fps --Информация о Клипе
    Исполнитель: Alexandra Stan
    Название: Cherry Pop
    Год выхода: 2020
    Продолжительность: 00:03:18-Файл
    Кодек: MPEG4/ISO/AVC/ H.264
    Формат: MKV
    Качество: MasterRip 1080p
    Видео: 1920 x 776 (2,474) at 60.000 fps 30.0 Мбит/сек
    Аудио: AC3 | 640 Кбит/сек | 44.1 KHz | 2 channels

    MI

    Общее
    Уникальный идентификатор : 190993606119980563584159617733808698116 (0x8FB007D03E6537C9B3E281A3D5853304)
    Полное имя : H:\Clips\Alexandra Stan - Cherry Pop.60fps.mkv
    Формат : Matroska
    Версия формата : Version 2
    Размер файла : 725 Мбайт
    Продолжительность : 3 м. 18 с.
    Общий поток : 30,6 Мбит/сек
    Дата кодирования : UTC 2020-11-27 08:12:57
    Программа кодирования : mkvmerge v7.8.0 ('River Man') 32bit built on Apr 3 2015 12:11:22
    Библиотека кодирования : libebml v1.3.1 + libmatroska v1.4.2
    Видео
    Идентификатор : 1
    Формат : AVC
    Формат/Информация : Advanced Video Codec
    Профиль формата : [email protected]
    Параметр CABAC формата : Да
    Параметр ReFrames формата : 5 кадров
    Идентификатор кодека : V_MPEG4/ISO/AVC
    Продолжительность : 3 м. 18 с.
    Битрейт : 30,0 Мбит/сек
    Ширина : 1920 пикселей
    Высота : 776 пикселей
    Соотношение сторон : 2,474
    Режим частоты кадров : Постоянный
    Частота кадров : 60,000 кадров/сек
    Цветовое пространство : YUV
    Субдискретизация насыщенности : 4:2:0
    Битовая глубина : 8 бит
    Тип развёртки : Прогрессивная
    Бит/(Пиксели*Кадры) : 0.336
    Размер потока : 696 Мбайт (96%)
    Библиотека кодирования : x264 core 146 r2538 121396c
    Настройки программы : cabac=1 / ref=5 / deblock=1:-1:-1 / analyse=0x3:0x113 / me=hex / subme=8 / psy=1 / psy_rd=1.00:0.15 / mixed_ref=1 / me_range=16 / chroma_me=1 / trellis=1 / 8x8dct=1 / cqm=0 / deadzone=21,11 / fast_pskip=1 / chroma_qp_offset=-3 / threads=12 / lookahead_threads=3 / sliced_threads=0 / nr=0 / decimate=1 / interlaced=0 / bluray_compat=0 / constrained_intra=0 / bframes=3 / b_pyramid=2 / b_adapt=2 / b_bias=0 / direct=3 / weightb=1 / open_gop=0 / weightp=2 / keyint=599 / keyint_min=59 / scenecut=40 / intra_refresh=0 / rc_lookahead=40 / rc=2pass / mbtree=1 / bitrate=30000 / ratetol=1.0 / qcomp=0.60 / qpmin=0 / qpmax=69 / qpstep=4 / cplxblur=20.0 / qblur=0.5 / vbv_maxrate=50000 / vbv_bufsize=50000 / nal_hrd=none / filler=0 / ip_ratio=1.40 / aq=1:1.00
    Default : Да
    Forced : Нет
    Аудио
    Идентификатор : 2
    Формат : AC-3
    Формат/Информация : Audio Coding 3
    Расширение режима : CM (complete main)
    Параметр Endianness формата : Big
    Идентификатор кодека : A_AC3
    Продолжительность : 3 м. 18 с.
    Вид битрейта : Постоянный
    Битрейт : 640 Кбит/сек
    Каналы : 2 канала
    Расположение каналов : Front: L R
    Частота : 44,1 КГц
    Частота кадров : 28,711 кадров/сек (1536 spf)
    Битовая глубина : 16 бит
    Метод сжатия : С потерями
    Размер потока : 15,2 Мбайт (2%)
    Default : Да
    Forced : Нет

    Release was prepared by 60-fps.org



You cannot post new topics in this forum
You cannot reply to topics in this forum
You cannot edit your posts in this forum
You cannot delete your posts in this forum
You cannot vote in polls in this forum
You cannot attach files in this forum
You cannot download files in this forum