Dan Balan - Chica Bomb (2010) WEBRip 1080p | 60 fps Britney Spears - Toxic (2004) HDTVRip 1080p | 60 fps Britney Spears - Oops! I Did It Again Uncut (2009) HD 1080p | 60 fps Luis Fonsi - Despacito ft. Daddy Yankee (2017) WEBRip 1080p | 60 fps Britney Spears - Lucky (2009) Full HD 1080p | 60 fps Bebe Rexha - I Got You (2017) WEBRip 1080p | 60 fps Beyonce - Crazy In Love ft. JAY Z (2009) Full HD 1080p | 60 fps Katy Perry - Hey Hey Hey (2017) WEBRip 1080p | 60 fps
  1. Longevity:
    4 years 8 months
    Posts:
    2411
    Gender:
    Male
    -Alexandra Stan - All My People (2014) Full HD 1080p | 60 fps -Информация о Клипе
    Исполнитель: Alexandra Stan
    Название: All My People
    Год выхода: 2014
    Продолжительность: 00:04:18-Файл
    Кодек: MPEG4/ISO/AVC/ H.264
    Формат: MKV
    Качество: Master 1080p
    Видео : 1920 x 1080 (1.778) at 60.000 fps 19.6 Мбит/сек
    Аудио : AC-3 | 256 Кбит/сек | 48.0 KHz | 2.0 channels

    MI

    Видео
    Идентификатор : 1
    Формат : AVC
    Формат/Информация : Advanced Video Codec
    Профиль формата : Main@L4.2
    Параметр CABAC формата : Да
    Параметр ReFrames формата : 3 кадра
    Идентификатор кодека : V_MPEG4/ISO/AVC
    Продолжительность : 4 м. 18 с.
    Битрейт : 19,6 Мбит/сек
    Ширина : 1920 пикселей
    Высота : 1080 пикселей
    Соотношение сторон : 16:9
    Режим частоты кадров : Постоянный
    Частота кадров : 60,000 кадров/сек
    Стандарт вещания : PAL
    Цветовое пространство : YUV
    Субдискретизация насыщенности : 4:2:0
    Битовая глубина : 8 бит
    Тип развёртки : Прогрессивная
    Бит/(Пиксели*Кадры) : 0.157
    Размер потока : 604 Мбайт (97%)
    Заголовок : www.60-fps.org
    Язык : English
    Default : Да
    Forced : Нет
    Основные цвета : BT.709
    Характеристики трансфера : BT.709
    Коэффициенты матрицы : BT.709
    colour_range : Limited
    Аудио
    Идентификатор : 2
    Формат : AC-3
    Формат/Информация : Audio Coding 3
    Расширение режима : CM (complete main)
    Параметр Endianness формата : Big
    Идентификатор кодека : A_AC3
    Продолжительность : 4 м. 18 с.
    Вид битрейта : Постоянный
    Битрейт : 256 Кбит/сек
    Каналы : 2 канала
    Расположение каналов : Front: L R
    Частота : 48,0 КГц
    Битовая глубина : 16 бит
    Метод сжатия : С потерями
    Размер потока : 7,89 Мбайт (1%)
    Заголовок : AC3
    Язык : English
    Default : Да
    Forced : Нет

    Release was prepared by 60 - fps

  2. Longevity:
    3 years 5 months
    Posts:
    5
    Gender:
    Unknown
    Люди встаньте на раздачу плиз.
    11-Jan-2016 18:36 (after 4 months 1 day)
  3. Longevity:
    20 days
    Posts:
    1
    Gender:
    Unknown
    please seed
    08-Jun-2019 16:37 (after 3 years 4 months)


You cannot post new topics in this forum
You cannot reply to topics in this forum
You cannot edit your posts in this forum
You cannot delete your posts in this forum
You cannot vote in polls in this forum
You cannot attach files in this forum
You cannot download files in this forum