Britney Spears - Toxic (2004) HDTVRip 1080p | 60 fps Dan Balan - Chica Bomb (2010) WEBRip 1080p | 60 fps Bebe Rexha - I Got You (2017) WEBRip 1080p | 60 fps Britney Spears - Oops! I Did It Again Uncut (2009) HD 1080p | 60 fps Luis Fonsi - Despacito ft. Daddy Yankee (2017) WEBRip 1080p | 60 fps Britney Spears - Lucky (2009) Full HD 1080p | 60 fps Spice Girls - Wannabe (1996) Full HD 1080p | 60 fps Katy Perry - Hey Hey Hey (2017) WEBRip 1080p | 60 fps
  1. ZHz

    Longevity:
    4 years 8 months
    Posts:
    186
    Gender:
    Male
    Исполнитель: Alex Gaudino & Crystal Waters
    Название: Destination Calabria
    Год выхода: 2008
    Продолжительность: 00:03:02--Кодек: MPEG
    Формат: MPG
    Качество: HDTVRip
    Видео: 1280x720, 50.000 fps, 9.6 mb/s
    Аудио: AC-3 448 Kbps, 2 channels, 48 KHz

    Доп. инфо

    Клип изначально был 50 фпс.

    MediaInfo

    General
    Complete name : J:\60FPS\Alex_Gaudino_ft._Crystal_Waters___Destination_Calabria__HDTVRip\Alex_Gaudino_ft._Crystal_Waters___Destination_Calabria__HDTVRip_.mpg
    Format : MPEG-PS
    File size : 221 MiB
    Duration : 3mn 2s
    Overall bit rate mode : Variable
    Overall bit rate : 10.2 Mbps
    Video
    ID : 224 (0xE0)
    Format : MPEG Video
    Commercial name : HDV 720p
    Format version : Version 2
    Format profile : Main@High
    Format settings, BVOP : Yes
    Format settings, Matrix : Custom
    Format settings, GOP : M=3, N=24
    Duration : 3mn 2s
    Bit rate mode : Variable
    Bit rate : 9 600 Kbps
    Width : 1 280 pixels
    Height : 720 pixels
    Display aspect ratio : 16:9
    Frame rate : 50.000 fps
    Standard : Component
    Color space : YUV
    Chroma subsampling : 4:2:0
    Bit depth : 8 bits
    Scan type : Progressive
    Compression mode : Lossy
    Bits/(Pixel*Frame) : 0.208
    Time code of first frame : 03:11:56:00
    Time code source : Group of pictures header
    Stream size : 207 MiB (94%)
    Audio
    ID : 189 (0xBD)-128 (0x80)
    Format : AC-3
    Format/Info : Audio Coding 3
    Mode extension : CM (complete main)
    Format settings, Endianness : Big
    Muxing mode : DVD-Video
    Duration : 3mn 2s
    Bit rate mode : Constant
    Bit rate : 448 Kbps
    Channel(s) : 2 channels
    Channel positions : Front: L R
    Sampling rate : 48.0 KHz
    Bit depth : 16 bits
    Compression mode : Lossy
    Delay relative to video : 59ms
    Stream size : 9.74 MiB (4%)

    Скриншоты

  2. Longevity:
    49 years
    Gender:
    Unknown
    А почему бардюры не обрезаете?
    03-Nov-2014 21:21 (after 16 minutes)
  3. ZHz

    Longevity:
    4 years 8 months
    Posts:
    186
    Gender:
    Male
    300А почему бардюры не обрезаете?
    Товарищ админ попросил делать 400х500, и я не любитель растягивать картинки
    03-Nov-2014 22:30 (after 1 hour 8 minutes)
  4. Longevity:
    49 years
    Gender:
    Unknown
    ZHz, Я про видео ))))
    03-Nov-2014 23:00 (after 30 minutes)
  5. ZHz

    Longevity:
    4 years 8 months
    Posts:
    186
    Gender:
    Male
    307ZHz, Я про видео ))))
    Меня попросили сразу залить без обработки
    03-Nov-2014 23:19 (after 19 minutes)
  6. Longevity:
    4 years 8 months
    Posts:
    2411
    Gender:
    Male
    Блин я везде виноват .... все стрелки на меня )
    03-Nov-2014 23:36 (after 16 minutes)
  7. Longevity:
    49 years
    Gender:
    Unknown
    ZHz, Ну по идею это считается не правильный рип..
    у которого сохранены бардюры... так как лишний битрейт на это уходит... )))
    Такое допустимо только для IMAX релизов )))
    03-Nov-2014 23:42 (after 6 minutes)
  8. ZHz

    Longevity:
    4 years 8 months
    Posts:
    186
    Gender:
    Male
    envy, пускай это будет IMAX релиз
    04-Nov-2014 00:45 (after 1 hour 3 minutes)
  9. Longevity:
    4 years 7 months
    Posts:
    31
    Gender:
    Male
    Что то качество,меня не впечатлило (((
    04-Nov-2014 13:28 (after 12 hours)
  10. ZHz

    Longevity:
    4 years 8 months
    Posts:
    186
    Gender:
    Male
    313Что то качество,меня не впечатлило (((
    что есть, то есть
    04-Nov-2014 13:58 (after 29 minutes)
  11. Longevity:
    4 years 7 months
    Posts:
    10
    Gender:
    Unknown
    очень хороший сайт
    04-Nov-2014 18:23 (after 4 hours)
  12. Longevity:
    4 years 7 months
    Posts:
    10
    Gender:
    Unknown
    60fps будет лучше
    04-Nov-2014 18:25 (after 1 minute)
  13. Longevity:
    4 years 7 months
    Posts:
    10
    Gender:
    Unknown
    добавте пожалуиста Britney Spears- Work Bitch в 60fps
    04-Nov-2014 21:56 (after 3 hours)
  14. Longevity:
    4 years 8 months
    Posts:
    311
    Gender:
    Male
    giorgi9306,это про какую такую работу она поёт? :ag:
    04-Nov-2014 22:05 (after 9 minutes)


You cannot post new topics in this forum
You cannot reply to topics in this forum
You cannot edit your posts in this forum
You cannot delete your posts in this forum
You cannot vote in polls in this forum
You cannot attach files in this forum
You cannot download files in this forum