[Цитировать]
ZHz

Исполнитель: Alex Gaudino & Crystal Waters
Название: Destination Calabria
Год выхода: 2008
Продолжительность: 00:03:02--Кодек: MPEG
Формат: MPG
Качество: HDTVRip
Видео: 1280x720, 50.000 fps, 9.6 mb/s
Аудио: AC-3 448 Kbps, 2 channels, 48 KHz

Доп. инфо

Клип изначально был 50 фпс.

MediaInfo

General
Complete name : J:\60FPS\Alex_Gaudino_ft._Crystal_Waters___Destination_Calabria__HDTVRip\Alex_Gaudino_ft._Crystal_Waters___Destination_Calabria__HDTVRip_.mpg
Format : MPEG-PS
File size : 221 MiB
Duration : 3mn 2s
Overall bit rate mode : Variable
Overall bit rate : 10.2 Mbps
Video
ID : 224 (0xE0)
Format : MPEG Video
Commercial name : HDV 720p
Format version : Version 2
Format profile : Main@High
Format settings, BVOP : Yes
Format settings, Matrix : Custom
Format settings, GOP : M=3, N=24
Duration : 3mn 2s
Bit rate mode : Variable
Bit rate : 9 600 Kbps
Width : 1 280 pixels
Height : 720 pixels
Display aspect ratio : 16:9
Frame rate : 50.000 fps
Standard : Component
Color space : YUV
Chroma subsampling : 4:2:0
Bit depth : 8 bits
Scan type : Progressive
Compression mode : Lossy
Bits/(Pixel*Frame) : 0.208
Time code of first frame : 03:11:56:00
Time code source : Group of pictures header
Stream size : 207 MiB (94%)
Audio
ID : 189 (0xBD)-128 (0x80)
Format : AC-3
Format/Info : Audio Coding 3
Mode extension : CM (complete main)
Format settings, Endianness : Big
Muxing mode : DVD-Video
Duration : 3mn 2s
Bit rate mode : Constant
Bit rate : 448 Kbps
Channel(s) : 2 channels
Channel positions : Front: L R
Sampling rate : 48.0 KHz
Bit depth : 16 bits
Compression mode : Lossy
Delay relative to video : 59ms
Stream size : 9.74 MiB (4%)

Скриншоты

[Цитировать]
Гость

А почему бардюры не обрезаете?

[Цитировать]
ZHz

300А почему бардюры не обрезаете?
Товарищ админ попросил делать 400х500, и я не любитель растягивать картинки

[Цитировать]
Гость

ZHz, Я про видео ))))

[Цитировать]
ZHz

307ZHz, Я про видео ))))
Меня попросили сразу залить без обработки

[Цитировать]
Kryl

Блин я везде виноват .... все стрелки на меня )

[Цитировать]
Гость

ZHz, Ну по идею это считается не правильный рип..
у которого сохранены бардюры... так как лишний битрейт на это уходит... )))
Такое допустимо только для IMAX релизов )))

[Цитировать]
ZHz

envy, пускай это будет IMAX релиз

[Цитировать]
kiryandr

Что то качество,меня не впечатлило (((

[Цитировать]
ZHz

313Что то качество,меня не впечатлило (((
что есть, то есть

[Цитировать]
giorgi9306

очень хороший сайт

[Цитировать]
giorgi9306

60fps будет лучше

[Цитировать]
giorgi9306

добавте пожалуиста Britney Spears- Work Bitch в 60fps

[Цитировать]
mimok

giorgi9306,это про какую такую работу она поёт? :ag:
 
Показать сообщения:    

Текущее время: 08-Дек 19:07

Часовой пояс: UTC + 3


Вы не можете начинать темы
Вы не можете отвечать на сообщения
Вы не можете редактировать свои сообщения
Вы не можете удалять свои сообщения
Вы не можете голосовать в опросах
Вы не можете прикреплять файлы к сообщениям
Вы не можете скачивать файлы