Топ Топиков за 24 часа
 
Luis Fonsi - Despacito ft. Daddy Yankee (2017) WEBRip 1080p | 60 fps Jennifer Lopez feat. Gente de Zona - Ni Tu Ni Yo (2017) WEBRip 1080p | 60 fps Iggy Azalea - Mo Bounce (2017) Full HD 1080p | 60 fps Katy Perry - Dark Horse (2014) Full HD 1080p | 60 fps DJ Khaled feat. Rihanna & Bryson Tiller - Wild Thoughts (2017) Full HD 1080p | 60 fps Inna - Gimme Gimme (2017) Full HD 1080p | 60 fps Loboda - Твои Глаза (2016) WEBRip 1080p | 60 fps Rihanna - Needed Me (2016) Full HD 1080p | 60 fps Jennifer Lopez - I'm Into You ft. Lil Wayne (2011) Full HD 1080p | 60 fps Spice Girls - Wannabe (1996) Full HD 1080p | 60 fps Taylor Swift - Look What You Made Me Do (2017) WEBRip 1080p | 60 fps Serebro - Мама Люба давай (2011) Full HD 1080p | 60 fps
  1. ZHz

    Стаж:
    3 года
    Сообщений:
    188
    Пол:
    Мужской
     
    Исполнитель: Alex Gaudino & Crystal Waters
    Название: Destination Calabria
    Год выхода: 2008
    Продолжительность: 00:03:02--Кодек: MPEG
    Формат: MPG
    Качество: HDTVRip
    Видео: 1280x720, 50.000 fps, 9.6 mb/s
    Аудио: AC-3 448 Kbps, 2 channels, 48 KHz

    Доп. инфо

    Клип изначально был 50 фпс.

    MediaInfo

    General
    Complete name : J:\60FPS\Alex_Gaudino_ft._Crystal_Waters___Destination_Calabria__HDTVRip\Alex_Gaudino_ft._Crystal_Waters___Destination_Calabria__HDTVRip_.mpg
    Format : MPEG-PS
    File size : 221 MiB
    Duration : 3mn 2s
    Overall bit rate mode : Variable
    Overall bit rate : 10.2 Mbps
    Video
    ID : 224 (0xE0)
    Format : MPEG Video
    Commercial name : HDV 720p
    Format version : Version 2
    Format profile : Main@High
    Format settings, BVOP : Yes
    Format settings, Matrix : Custom
    Format settings, GOP : M=3, N=24
    Duration : 3mn 2s
    Bit rate mode : Variable
    Bit rate : 9 600 Kbps
    Width : 1 280 pixels
    Height : 720 pixels
    Display aspect ratio : 16:9
    Frame rate : 50.000 fps
    Standard : Component
    Color space : YUV
    Chroma subsampling : 4:2:0
    Bit depth : 8 bits
    Scan type : Progressive
    Compression mode : Lossy
    Bits/(Pixel*Frame) : 0.208
    Time code of first frame : 03:11:56:00
    Time code source : Group of pictures header
    Stream size : 207 MiB (94%)
    Audio
    ID : 189 (0xBD)-128 (0x80)
    Format : AC-3
    Format/Info : Audio Coding 3
    Mode extension : CM (complete main)
    Format settings, Endianness : Big
    Muxing mode : DVD-Video
    Duration : 3mn 2s
    Bit rate mode : Constant
    Bit rate : 448 Kbps
    Channel(s) : 2 channels
    Channel positions : Front: L R
    Sampling rate : 48.0 KHz
    Bit depth : 16 bits
    Compression mode : Lossy
    Delay relative to video : 59ms
    Stream size : 9.74 MiB (4%)

    Скриншоты

  2. Стаж:
    47 лет
    Пол:
    Не указан
     
    А почему бардюры не обрезаете?
    03-Ноя-2014 21:21 (спустя 16 минут)
  3. ZHz

    Стаж:
    3 года
    Сообщений:
    188
    Пол:
    Мужской
     
    300А почему бардюры не обрезаете?
    Товарищ админ попросил делать 400х500, и я не любитель растягивать картинки
    03-Ноя-2014 22:30 (спустя 1 час 8 минут)
  4. Стаж:
    47 лет
    Пол:
    Не указан
     
    ZHz, Я про видео ))))
    03-Ноя-2014 23:00 (спустя 30 минут)
  5. ZHz

    Стаж:
    3 года
    Сообщений:
    188
    Пол:
    Мужской
     
    307ZHz, Я про видео ))))
    Меня попросили сразу залить без обработки
    03-Ноя-2014 23:19 (спустя 19 минут)
  6. Стаж:
    3 года 1 месяц
    Сообщений:
    2086
    Пол:
    Мужской
     
    Блин я везде виноват .... все стрелки на меня )
    03-Ноя-2014 23:36 (спустя 16 минут)
  7. Стаж:
    47 лет
    Пол:
    Не указан
     
    ZHz, Ну по идею это считается не правильный рип..
    у которого сохранены бардюры... так как лишний битрейт на это уходит... )))
    Такое допустимо только для IMAX релизов )))
    03-Ноя-2014 23:42 (спустя 6 минут)
  8. ZHz

    Стаж:
    3 года
    Сообщений:
    188
    Пол:
    Мужской
     
    envy, пускай это будет IMAX релиз
    04-Ноя-2014 00:45 (спустя 1 час 3 минуты)
  9. Стаж:
    3 года
    Сообщений:
    31
    Пол:
    Мужской
     
    Что то качество,меня не впечатлило (((
    04-Ноя-2014 13:28 (спустя 12 часов)
  10. ZHz

    Стаж:
    3 года
    Сообщений:
    188
    Пол:
    Мужской
     
    313Что то качество,меня не впечатлило (((
    что есть, то есть
    04-Ноя-2014 13:58 (спустя 29 минут)
  11. Стаж:
    3 года
    Сообщений:
    10
    Пол:
    Не указан
     
    очень хороший сайт
    04-Ноя-2014 18:23 (спустя 4 часа)
  12. Стаж:
    3 года
    Сообщений:
    10
    Пол:
    Не указан
     
    60fps будет лучше
    04-Ноя-2014 18:25 (спустя 1 минута)
  13. Стаж:
    3 года
    Сообщений:
    10
    Пол:
    Не указан
     
    добавте пожалуиста Britney Spears- Work Bitch в 60fps
    04-Ноя-2014 21:56 (спустя 3 часа)
  14. Стаж:
    3 года 1 месяц
    Сообщений:
    311
    Пол:
    Мужской
     
    giorgi9306,это про какую такую работу она поёт? :ag:
    04-Ноя-2014 22:05 (спустя 9 минут)


Вы не можете начинать темы
Вы не можете отвечать на сообщения
Вы не можете редактировать свои сообщения
Вы не можете удалять свои сообщения
Вы не можете голосовать в опросах
Вы не можете прикреплять файлы к сообщениям
Вы не можете скачивать файлы