[Цитировать]
kamikkadze

Алексей Чумаков и Юлия Ковальчук - В Заметки (2014) HDTVRip 1080p | 60 fps

Информация о Клипе:
Исполнители:Алексей Чумаков и Юлия Ковальчук
Название:В Заметки
Год выпуска: 2014 г.
Жанр: Поп
Страна: Россия
Продолжительность: 00:04:14

Файл:
Формат видео: MKV
Качество видео: HDTVRip 1080p | 60 fps
Видео кодек: H.264
Аудио кодек: AC3
Видео: 1920x798 | 60,000 кадров/сек | 13,0 Мбит/сек
Аудио: AC3 | 2 channels | 48 kHz |384 Кбит/сек

Автор Рипа:Kamikkadze

MediaInfo

Общее
Уникальный идентификатор : 232901565233983728509229243485090756560 (0xAF3735B93EF5984789782036B7BC37D0)
Полное имя : C:\Users\Kamikkadze\Desktop\Клипы\на 60\Алексей Чумаков и Юлия Ковальчук - В заметки.mkv
Формат : Matroska
Версия формата : Version 4 / Version 2
Размер файла : 405 Мбайт
Продолжительность : 4 м. 14 с.
Общий поток : 13,4 Мбит/сек
Название фильма : Алексей Чумаков и Юлия Ковальчук - В заметки(Rip By Kamikkadze)
Дата кодирования : UTC 2015-04-28 17:15:44
Программа кодирования : mkvmerge v7.8.0 ('River Man') 64bit built on Mar 27 2015 16:31:37
Библиотека кодирования : libebml v1.3.1 + libmatroska v1.4.2
DURATION : 00:04:14.048000000
NUMBER_OF_FRAMES : 7939
NUMBER_OF_BYTES : 12194304
_STATISTICS_WRITING_APP : mkvmerge v7.8.0 ('River Man') 64bit built on Mar 27 2015 16:31:37
_STATISTICS_WRITING_DATE_UTC : 2015-04-28 17:15:44
_STATISTICS_TAGS : BPS DURATION NUMBER_OF_FRAMES NUMBER_OF_BYTES
Видео
Идентификатор : 1
Формат : AVC
Формат/Информация : Advanced Video Codec
Профиль формата : High@L4.2
Параметр CABAC формата : Да
Параметр ReFrames формата : 8 кадров
Идентификатор кодека : V_MPEG4/ISO/AVC
Продолжительность : 4 м. 14 с.
Битрейт : 13,0 Мбит/сек
Ширина : 1920 пикселей
Высота : 798 пикселей
Соотношение сторон : 2,40:1
Режим частоты кадров : Постоянный
Частота кадров : 60,000 кадров/сек
Цветовое пространство : YUV
Субдискретизация насыщенности : 4:2:0
Битовая глубина : 8 бит
Тип развёртки : Прогрессивная
Бит/(Пиксели*Кадры) : 0.141
Размер потока : 385 Мбайт (95%)
Заголовок : Rip By Kamikkadze(Специально для проекта 60-fps.org)
Библиотека кодирования : x264 core 130 r2273 b3065e6
Настройки программы : cabac=1 / ref=8 / deblock=1:-1:-1 / analyse=0x3:0x133 / me=umh / subme=7 / psy=1 / psy_rd=1.00:0.10 / mixed_ref=1 / me_range=16 / chroma_me=1 / trellis=2 / 8x8dct=1 / cqm=0 / deadzone=21,11 / fast_pskip=0 / chroma_qp_offset=-3 / threads=6 / lookahead_threads=1 / sliced_threads=0 / nr=0 / decimate=1 / interlaced=0 / bluray_compat=0 / constrained_intra=0 / bframes=3 / b_pyramid=2 / b_adapt=2 / b_bias=0 / direct=3 / weightb=1 / open_gop=0 / weightp=2 / keyint=250 / keyint_min=25 / scenecut=40 / intra_refresh=0 / rc_lookahead=50 / rc=2pass / mbtree=1 / bitrate=13000 / ratetol=1.0 / qcomp=0.60 / qpmin=0 / qpmax=69 / qpstep=4 / cplxblur=20.0 / qblur=0.5 / ip_ratio=1.40 / aq=1:1.00
Язык : Russian
Default : Да
Forced : Нет
Аудио
Идентификатор : 2
Формат : AC-3
Формат/Информация : Audio Coding 3
Расширение режима : CM (complete main)
Параметр Endianness формата : Big
Идентификатор кодека : A_AC3
Продолжительность : 4 м. 14 с.
Вид битрейта : Постоянный
Битрейт : 384 Кбит/сек
Каналы : 2 канала
Расположение каналов : Front: L R
Частота : 48,0 КГц
Битовая глубина : 16 бит
Метод сжатия : С потерями
Размер потока : 11,6 Мбайт (3%)
Заголовок : Rip By Kamikkadze(Специально для проекта 60-fps.org)
Язык : Russian
Default : Да
Forced : Нет
Просьба к переливающим на другие сайты, в оформлении указывайте пожалуйста авторство рипа - Kamikkadze


Последний раз редактировалось: kamikkadze (2015-04-28 20:56), всего редактировалось 1 раз

[Цитировать]
ZHz

Что со скринами? Почему изображение смещено?

[Цитировать]
kamikkadze

Что со скринами? Почему изображение смещено?
не знаю,заменил :ar:

[Цитировать]
mimok

во блин, ZHz, ты тута? я даже забыл как ты выглядишь :bl:

[Цитировать]
ZHz

2455во блин, ZHz, ты тута? я даже забыл как ты выглядишь :bl:
что поделать, 2 курсача, 2 диплома и скорая сдача заставили забросить на какое то время мое ремесло
 
Показать сообщения:    

Текущее время: 07-Дек 19:19

Часовой пояс: UTC + 3


Вы не можете начинать темы
Вы не можете отвечать на сообщения
Вы не можете редактировать свои сообщения
Вы не можете удалять свои сообщения
Вы не можете голосовать в опросах
Вы не можете прикреплять файлы к сообщениям
Вы не можете скачивать файлы