[Цитировать]
Kryl

--Александр Рыбак - Котик (2015) WEBRip 1080p | 60 fps --Информация о Клипе
Исполнитель: Александр Рыбак
Название: Котик
Год выхода: 2015
Продолжительность: 00:03:37
Описание:
Александр Рыбак представил романтичный видеоклип на песню «Котик». В клипе, съемки которого прошли в Москве, певец признается в любви очаровательной блондинке. Влюбленные гуляют по городу, встречают закат на крыше и катаются на лодке по Москва-реке.-Файл
Кодек: MPEG4/ISO/AVC/ H.264
Формат: MKV
Качество: WEBRip 1080p
Видео: 1920 x 810 (2.370) at 60.000 fps 19.6 Мбит/сек
Аудио: MP3 | 320 Кбит/сек | 44.1 KHz | 2 channels

MI

Видео
Идентификатор : 1
Формат : AVC
Формат/Информация : Advanced Video Codec
Профиль формата : Main@L4.2
Параметр CABAC формата : Да
Параметр ReFrames формата : 3 кадра
Параметр GOP формата : M=4, N=60
Идентификатор кодека : V_MPEG4/ISO/AVC
Продолжительность : 3 м. 37 с.
Битрейт : 19,6 Мбит/сек
Ширина : 1920 пикселей
Высота : 810 пикселей
Соотношение сторон : 2,40:1
Режим частоты кадров : Постоянный
Частота кадров : 60,000 кадров/сек
Стандарт вещания : PAL
Цветовое пространство : YUV
Субдискретизация насыщенности : 4:2:0
Битовая глубина : 8 бит
Тип развёртки : Прогрессивная
Бит/(Пиксели*Кадры) : 0.210
Размер потока : 509 Мбайт (96%)
Заголовок : www.60-fps.org
Язык : English
Default : Да
Forced : Нет
Основные цвета : BT.709
Характеристики трансфера : BT.709
Коэффициенты матрицы : BT.709
colour_range : Limited
Аудио
Идентификатор : 2
Формат : MPEG Audio
Версия формата : Version 1
Профиль формата : Layer 3
Режим : Joint stereo
Расширение режима : MS Stereo
Идентификатор кодека : A_MPEG/L3
Идентификатор кодека/Подсказка : MP3
Продолжительность : 3 м. 37 с.
Вид битрейта : Постоянный
Битрейт : 320 Кбит/сек
Каналы : 2 канала
Частота : 44,1 КГц
Метод сжатия : С потерями
Размер потока : 8,30 Мбайт (2%)
Заголовок : MP3
Библиотека кодирования : LAME3.99.5
Default : Да
Forced : Нет

Релиз подготовлен 60 - fps

[60-fps.org].t1070.torrent
Торрент: Зарегистрирован [ 2015-09-17 22:04 ] · C3DAECC7266C87097C9D49EB13E93C2964043190

Скачать .torrent

Скачать

11 KB

Статус: проверено
Скачан: 4 раз
Поблагодарили:
Размер: 527 MB
 
Похожие Темы
 
Показать сообщения:    

Текущее время: 25-Фев 18:53

Часовой пояс: UTC + 3


Вы не можете начинать темы
Вы не можете отвечать на сообщения
Вы не можете редактировать свои сообщения
Вы не можете удалять свои сообщения
Вы не можете голосовать в опросах
Вы не можете прикреплять файлы к сообщениям
Вы можете скачивать файлы