-Название: Александр
Оригинальное название: Alexander
Год выпуска: 2004
Страна: Германия, США, Нидерланды, Франция, Великобритания, Италия
Жанр: боевик, драма, мелодрама, приключения, военный, биография, история
Продолжительность: 03:33:36
Перевод: Авторский (одноголосый)
Субтитры: русские (Полные), английские (Полные)-Режиссер: Оливер Стоун / Oliver Stone-В ролях: Колин Фаррелл (Alexander), Анджелина Джоли (Olympias), Вэл Килмер (Philip), Энтони Хопкинс (Old Ptolemy), Джаред Лето (Hephaistion), Розарио Доусон (Roxane), Джонатан Риз Майерс (Cassander), Рори МакКанн (Crateros), Гари Стретч (Cleitus), Йен Битти (Antigonus), Нил Джексон (Perdiccas), Раз Деган (Darius III)-Описание:
Спустя 40 лет после гибели Александра пожилой Птолемей, один из ближайших соратников Македонского, ставший после его смерти наместником Египта, решает рассказать и записать историю побед великого полководца. В течение восьми лет войско Александра Великого двигалось на Восток, к берегам мирового Океана.
Покорив Западную и Центральную Азию, Македонский первым ступил на загадочную и таинственную землю древней Индии. Об этом он мечтал ещё в детстве, слушая мифы о Трое, подвигах Геракла и Ахиллеса...-Рейтинг

imdb.com: 5.50 (117 972)
MPAA: R - Лицам до 17 лет обязательно присутствие взрослого-Автор рипа:Tiberiumsun69
-Качество: BDRip 1080p / 60 FPS
Формат: MKV
Видео кодек: AVC
Аудио кодек:AC3
Видео: AVC, 1920x792, 14257 kbps, 59,940 fps
Аудио №1: русский / AC3 / 5.1 / 48 kHz / 640 kbps / 16 bit |Одноголосый, закадровый Ю.Немахов|
Аудио №2: английский / AC3 / 5.1 / 48 kHz / 640 kbps / 16 bit
Навигация по главам: есть- -

MI

General
Unique ID : 191094543606756081425871057012290716293 (0x8FC3786A7051C0FF97AA65FF8E578285)
Complete name : A:1080p 60fpsАлександр 1080p 60fps.mkv
Format : Matroska
Format version : Version 4 / Version 2
File size : 23.7 GiB
Duration : 3h 33mn
Overall bit rate : 15.9 Mbps
Encoded date : UTC 2014-10-01 11:39:32
Writing application : mkvmerge v6.9.1 ('Blue Panther') 64bit built on Apr 18 2014 18:23:38
Writing library : libebml v1.3.0 + libmatroska v1.4.1
Video
ID : 1
Format : AVC
Format/Info : Advanced Video Codec
Format profile : High@L4.1
Format settings, CABAC : Yes
Format settings, ReFrames : 4 frames
Codec ID : V_MPEG4/ISO/AVC
Duration : 3h 33mn
Bit rate : 14.3 Mbps
Width : 1 920 pixels
Height : 792 pixels
Display aspect ratio : 2.40:1
Frame rate : 59.940 fps
Color space : YUV
Chroma subsampling : 4:2:0
Bit depth : 8 bits
Scan type : Progressive
Bits/(Pixel*Frame) : 0.156
Stream size : 21.3 GiB (90%)
Writing library : x264 core 130 r2273 b3065e6
Encoding settings : cabac=1 / ref=4 / deblock=1:0:0 / analyse=0x3:0 / me=umh / subme=9 / psy=1 / psy_rd=0.00:0.00 / mixed_ref=1 / me_range=42 / chroma_me=0 / trellis=1 / 8x8dct=1 / cqm=0 / deadzone=21,11 / fast_pskip=0 / chroma_qp_offset=0 / threads=12 / lookahead_threads=1 / sliced_threads=0 / nr=0 / decimate=0 / interlaced=0 / bluray_compat=0 / constrained_intra=0 / bframes=5 / b_pyramid=2 / b_adapt=2 / b_bias=0 / direct=1 / weightb=1 / open_gop=0 / weightp=2 / keyint=594 / keyint_min=59 / scenecut=40 / intra_refresh=0 / rc=crf / mbtree=0 / crf=14.0 / qcomp=0.60 / qpmin=0 / qpmax=69 / qpstep=4 / ip_ratio=1.40 / pb_ratio=1.30 / aq=1:0.90
Language : English
Default : Yes
Forced : No
Audio #1
ID : 2
Format : AC-3
Format/Info : Audio Coding 3
Mode extension : CM (complete main)
Codec ID : A_AC3
Duration : 3h 33mn
Bit rate mode : Constant
Bit rate : 640 Kbps
Channel(s) : 6 channels
Channel positions : Front: L C R, Side: L R, LFE
Sampling rate : 48.0 KHz
Bit depth : 16 bits
Compression mode : Lossy
Stream size : 978 MiB (4%)
Title : Одноголосый, закадровый Немахов
Language : Russian
Default : Yes
Forced : No
Audio #2
ID : 3
Format : AC-3
Format/Info : Audio Coding 3
Mode extension : CM (complete main)
Codec ID : A_AC3
Duration : 3h 33mn
Bit rate mode : Constant
Bit rate : 640 Kbps
Channel(s) : 6 channels
Channel positions : Front: L C R, Side: L R, LFE
Sampling rate : 48.0 KHz
Bit depth : 16 bits
Compression mode : Lossy
Stream size : 978 MiB (4%)
Title : Оригинал
Language : English
Default : No
Forced : No
Text #1
ID : 4
Format : PGS
Muxing mode : zlib
Codec ID : S_HDMV/PGS
Codec ID/Info : The same subtitle format used on BDs/HD-DVDs
Title : Полные
Language : Russian
Default : No
Forced : No
Text #2
ID : 5
Format : PGS
Muxing mode : zlib
Codec ID : S_HDMV/PGS
Codec ID/Info : The same subtitle format used on BDs/HD-DVDs
Title : Полные
Language : English
Default : No
Forced : No
Menu
00:00:00.000 : en:Chapter 1
00:12:36.630 : en:Chapter 2
00:16:05.172 : en:Chapter 3
00:35:50.398 : en:Chapter 4
00:43:59.720 : en:Chapter 5
00:54:50.704 : en:Chapter 6
01:00:48.936 : en:Chapter 7
01:08:48.332 : en:Chapter 8
01:19:41.610 : en:Chapter 9
01:32:58.030 : en:Chapter 10
01:41:58.153 : en:Chapter 11
01:48:48.939 : en:Chapter 12
01:57:51.898 : en:Chapter 13
02:06:29.039 : en:Chapter 14
02:16:48.450 : en:Chapter 15
02:29:01.390 : en:Chapter 16
02:40:46.428 : en:Chapter 17
02:47:53.521 : en:Chapter 18
02:57:11.454 : en:Chapter 19
03:07:50.634 : en:Chapter 20
03:16:13.762 : en:Chapter 21
03:25:23.811 : en:Chapter 22
03:33:36.470 : en:Chapter 23

Скриншоты

Просьба к переливающим на другие сайты, в оформлении указывайте пожалуйста авторство рипа - Tiberiumsun69
 
Показать сообщения:    

Текущее время: 24-Сен 08:09

Часовой пояс: UTC + 3


Вы не можете начинать темы
Вы не можете отвечать на сообщения
Вы не можете редактировать свои сообщения
Вы не можете удалять свои сообщения
Вы не можете голосовать в опросах
Вы не можете прикреплять файлы к сообщениям
Вы не можете скачивать файлы