[Цитировать]
ZHz

Название: Аладдин
Оригинальное название: Aladdin
Год выпуска: 1992
Страна: США
Жанр: мультфильм, мюзикл, фэнтези, мелодрама, комедия, приключения, семейный
Продолжительность: 01:30:39
Перевод: Дублированный, многоголосный, авторский
Субтитры: Русские (полные, форсированные, на песни), Английские
Режиссер: Рон Клементс, Джон Маскер-В ролях: Скотт Венгер, Робин Уильямс, Линда Ларкин, Джонатан Фриман, Фрэнк Уэлкер, Гилберт Готтфрид, Дуглас Сил, Чарльз Адлер, Джек Эйнджел, Кори Бертон--Описание: В славном граде Аграба живет Аладдин, веселый воришка с золотым сердцем. Живет и не знает, что вскоре его ждет величайшее приключение в жизни. Ведь только с его помощью черный маг Джафар может овладеть невероятным сокровищем — лампой, в которой заключен исполняющий желания могущественный Джинн. И только хитроумие, смекалка и доброта Аладдина и его друзей — обезьянки Абу, принцессы Жасмин и самого Джинна способны помешать Джафару завладеть лампой и захватить власть над миром…--СЭМПЛ
Кодек: AVC
Формат: MKV
Качество: BDRip 1080p
Видео: 1920x1040, 59.940 fps, 8093 Kbps
Аудио №1:AC-3, 6 ch, 640 kbps (Дубляж)
Аудио №2:AC-3, 6 ch, 640 kbps (Оригинал)
Аудио №3:AC-3, 6 ch, 448 kbps / Авторский одноголосый (А.Михалев)
Аудио №4:AC-3, 6 ch, 448 kbps / Профессиональный двухголосый (П.Гланц и И.Королева)
Аудио №5:AC-3, 2 ch, 192 kbps / Авторский одноголосый (А.Марченко)
Навигация по главам: есть

MediaInfo

General
Unique ID : 245455866471767128307337241694446114208 (0xB8A9149044828043B5C8E3708CD555A0)
Complete name : J:\60FPS\Aladdin\Aladdin [60FPS by ZHz].mkv
Format : Matroska
Format version : Version 2
File size : 6.72 GiB
Duration : 1h 30mn
Overall bit rate : 10.6 Mbps
Movie name : Аладдин.1992
Encoded date : UTC 2014-12-04 05:01:48
Writing application : mkvmerge v4.2.0 ('No Talking') сборка от Jul 28 2010 18:38:23
Writing library : libebml v1.0.0 + libmatroska v1.0.0
Video
ID : 1
Format : AVC
Format/Info : Advanced Video Codec
Format profile : High@L5.0
Format settings, CABAC : Yes
Format settings, ReFrames : 5 frames
Muxing mode : Header stripping
Codec ID : V_MPEG4/ISO/AVC
Duration : 1h 30mn
Bit rate : 8 093 Kbps
Width : 1 920 pixels
Height : 1 040 pixels
Display aspect ratio : 1.85:1
Frame rate mode : Constant
Frame rate : 59.880 fps
Original frame rate : 59.940 fps
Color space : YUV
Chroma subsampling : 4:2:0
Bit depth : 8 bits
Scan type : Progressive
Bits/(Pixel*Frame) : 0.068
Stream size : 5.13 GiB (76%)
Writing library : x264 core 130 r2273 b3065e6
Encoding settings : cabac=1 / ref=5 / deblock=1:1:1 / analyse=0x3:0x112 / me=esa / subme=6 / psy=1 / psy_rd=0.40:0.00 / mixed_ref=1 / me_range=4 / chroma_me=1 / trellis=2 / 8x8dct=1 / cqm=0 / deadzone=21,11 / fast_pskip=1 / chroma_qp_offset=-2 / threads=12 / lookahead_threads=3 / sliced_threads=0 / nr=0 / decimate=1 / interlaced=0 / bluray_compat=0 / constrained_intra=0 / bframes=4 / b_pyramid=2 / b_adapt=2 / b_bias=0 / direct=3 / weightb=1 / open_gop=0 / weightp=2 / keyint=250 / keyint_min=25 / scenecut=40 / intra_refresh=0 / rc_lookahead=50 / rc=crf / mbtree=1 / crf=16.5 / qcomp=0.60 / qpmin=0 / qpmax=69 / qpstep=4 / vbv_maxrate=50000 / vbv_bufsize=50000 / crf_max=0.0 / nal_hrd=none / ip_ratio=1.40 / aq=1:0.60
Language : English
Default : Yes
Forced : No
Audio #1
ID : 2
Format : AC-3
Format/Info : Audio Coding 3
Mode extension : CM (complete main)
Format settings, Endianness : Big
Muxing mode : Header stripping
Codec ID : A_AC3
Duration : 1h 30mn
Bit rate mode : Constant
Bit rate : 640 Kbps
Channel(s) : 6 channels
Channel positions : Front: L C R, Side: L R, LFE
Sampling rate : 48.0 KHz
Bit depth : 16 bits
Compression mode : Lossy
Stream size : 415 MiB (6%)
Title : Дубляж
Language : Russian
Default : Yes
Forced : No
Audio #2
ID : 3
Format : AC-3
Format/Info : Audio Coding 3
Mode extension : CM (complete main)
Format settings, Endianness : Big
Muxing mode : Header stripping
Codec ID : A_AC3
Duration : 1h 30mn
Bit rate mode : Constant
Bit rate : 640 Kbps
Channel(s) : 6 channels
Channel positions : Front: L C R, Side: L R, LFE
Sampling rate : 48.0 KHz
Bit depth : 16 bits
Compression mode : Lossy
Stream size : 415 MiB (6%)
Title : Оригинал
Language : English
Default : No
Forced : No
Audio #3
ID : 9
Format : AC-3
Format/Info : Audio Coding 3
Mode extension : CM (complete main)
Format settings, Endianness : Big
Muxing mode : Header stripping
Codec ID : A_AC3
Duration : 1h 30mn
Bit rate mode : Constant
Bit rate : 384 Kbps
Channel(s) : 6 channels
Channel positions : Front: L C R, Side: L R, LFE
Sampling rate : 48.0 KHz
Bit depth : 16 bits
Compression mode : Lossy
Delay relative to video : 19s 102ms
Stream size : 249 MiB (4%)
Title : Одноголосый, Михалев
Language : Russian
Default : No
Forced : No
Audio #4
ID : 10
Format : AC-3
Format/Info : Audio Coding 3
Mode extension : CM (complete main)
Format settings, Endianness : Big
Muxing mode : Header stripping
Codec ID : A_AC3
Duration : 1h 30mn
Bit rate mode : Constant
Bit rate : 448 Kbps
Channel(s) : 6 channels
Channel positions : Front: L C R, Side: L R, LFE
Sampling rate : 48.0 KHz
Bit depth : 16 bits
Compression mode : Lossy
Delay relative to video : 19s 102ms
Stream size : 291 MiB (4%)
Title : Двуголосый, Гланц и Королева
Language : Russian
Default : No
Forced : No
Audio #5
ID : 11
Format : AC-3
Format/Info : Audio Coding 3
Mode extension : CM (complete main)
Format settings, Endianness : Big
Muxing mode : Header stripping
Codec ID : A_AC3
Duration : 1h 30mn
Bit rate mode : Constant
Bit rate : 192 Kbps
Channel(s) : 2 channels
Channel positions : Front: L R
Sampling rate : 48.0 KHz
Bit depth : 16 bits
Compression mode : Lossy
Delay relative to video : 19s 102ms
Stream size : 125 MiB (2%)
Title : Одноголосый, Марченко
Language : Russian
Default : No
Forced : No
Text #1
ID : 4
Format : UTF-8
Codec ID : S_TEXT/UTF8
Codec ID/Info : UTF-8 Plain Text
Title : Forced
Language : Russian
Default : Yes
Forced : Yes
Text #2
ID : 5
Format : UTF-8
Codec ID : S_TEXT/UTF8
Codec ID/Info : UTF-8 Plain Text
Title : Songs
Language : Russian
Default : No
Forced : No
Text #3
ID : 6
Format : UTF-8
Codec ID : S_TEXT/UTF8
Codec ID/Info : UTF-8 Plain Text
Title : Full
Language : Russian
Default : No
Forced : No
Text #4
ID : 7
Format : UTF-8
Codec ID : S_TEXT/UTF8
Codec ID/Info : UTF-8 Plain Text
Title : Songs
Language : English
Default : No
Forced : No
Text #5
ID : 8
Format : UTF-8
Codec ID : S_TEXT/UTF8
Codec ID/Info : UTF-8 Plain Text
Title : Full
Language : English
Default : No
Forced : No
Menu
00:00:00.000 : :Chapter 1
00:03:06.060 : :Chapter 2
00:06:47.323 : :Chapter 3
00:12:37.423 : :Chapter 4
00:16:34.618 : :Chapter 5
00:19:39.052 : :Chapter 6
00:23:50.470 : :Chapter 7
00:27:39.324 : :Chapter 8
00:31:21.629 : :Chapter 9
00:34:55.676 : :Chapter 10
00:37:20.363 : :Chapter 11
00:41:13.387 : :Chapter 12
00:43:32.860 : :Chapter 13
00:47:17.042 : :Chapter 14
00:48:39.958 : :Chapter 15
00:55:20.025 : :Chapter 16
00:57:37.745 : :Chapter 17
01:03:04.906 : :Chapter 18
01:07:24.915 : :Chapter 19
01:10:07.411 : :Chapter 20
01:10:41.654 : :Chapter 21
01:15:31.610 : :Chapter 22
01:18:57.983 : :Chapter 23
01:21:41.438 : :Chapter 24
01:25:43.555 : :Chapter 25

Скриншоты

[Цитировать]
Kryl

Оперативненько ... )

[Цитировать]
ZHz

KRYL, на ночь поставил

[Цитировать]
Black Prince

ZHz спасибо тебе добрый человек !
Отлично получилось,реальное 3дэ без очков !Да еще и любимейший мультик.
Чувствую что я нашел себе любимый трекер))

[Цитировать]
Kryl

938ZHz спасибо тебе добрый человек !
Отлично получилось,реальное 3дэ без очков !Да еще и любимейший мультик.
Чувствую что я нашел себе любимый трекер))
За любовь надо платить .... :ag: :ag: :ag:

[Цитировать]
ZHz

Black Prince, 3D? :bw:

[Цитировать]
Black Prince

943 3D?
ну как бы,если хорошо сделано,то 60 fps имеет эффект 3D, и даже очки не нужны,да что там говорить,с очками не удобней и хуже.
942За любовь надо платить ....
я надеюсь на взаимную лубоффь

[Цитировать]
mciek

Нет раздачи!!!

[Цитировать]
Жесия

Поставьте пожалуйста на раздачу))))

[Цитировать]
phantom-187

Люди добрые, встаньте на раздачу.

[Цитировать]
Kryl

4536Люди добрые, встаньте на раздачу.
Не кому встать :ac:
 
Показать сообщения:    

Текущее время: 03-Дек 16:43

Часовой пояс: UTC + 3


Вы не можете начинать темы
Вы не можете отвечать на сообщения
Вы не можете редактировать свои сообщения
Вы не можете удалять свои сообщения
Вы не можете голосовать в опросах
Вы не можете прикреплять файлы к сообщениям
Вы не можете скачивать файлы