Аватар / Avatar (2009) BDRip 1080p | 120 fps | Extended Collector's Cut | Experimental Мстители: Война бесконечности / Avengers: Infinity War (2018) BDRip 1080p | 120 fps Хан Соло: Звёздные войны. Истории / Solo: A Star Wars Story (2018) BDRip 1080p | Локализованная версия | 120 fps Трансформеры: Месть падших / Transformers: Revenge of the Fallen (2009) BDRip 1080p | IMAX Edition | 120 fps Аватар / Avatar (2009) BDRip 720p | Extended Cut | 95 fps Мир Юрского периода 2 / Jurassic World: Fallen Kingdom (2018) BDRip 720p | 95 fps Чужой / Alien (1979) BDRip 1080p | Director's Cut | 120 fps Чужие / Aliens (1986) BDRip 1080p | Special Edition | 120 fps
Статистика раздачи
Размер:  9,03 GB   |    Зарегистрирован:  22 дня   |    Скачан:  5 раз

Полного источника не было: 5 часов

 
 
 
  1. Стаж:
    4 года 2 месяца
    Сообщений:
    2433
    Пол:
    Мужской
    «История дружбы, изменившей мир» Информация
    Название: Альфа
    Оригинальное название: Alpha
    Год выхода: 2018
    Жанр: Драма, приключения, семейный
    Режиссер: Альберт Хьюз
    Сценарий: Daniele Sebastian Wiedenhaupt
    Продюсер: Альберт Хьюз, Эндрю Рона
    В ролях: Коди Смит-МакФи, Наташа Мальте, Леонор Варела, Йоуханнес Хёйкьюр Йоуханнессон, Йенс Хультен, Мерседес Де Ла Зерда, Прия Раджаратнам, Спенсер Богерт, Патрик Флэнеган, Майкл Круз Даль

    Сюжет:
    20 000 лет назад Земля была холодным и неуютным местом, в котором смерть подстерегала человека на каждом шагу, а жизнь зависела от того, удалось загнать добычу или нет. Молодой охотник из племени, которое по уровню жизни и культуры было одним из самых развитых на планете, оказывается один на один с враждебным миром, полным смертельных опасностей. Ему предстоит взглянуть в лицо своим страхам и найти дорогу домой. И, возможно, от исхода его путешествия зависит судьба всего человечества.

    Страна: США
    Продолжительность: 01:36:31

    Файл
    Кодек: H.264
    Формат: MKV
    Качество: BDRip 720p | 95 fps
    Видео: 1280 x 536 (2.388) | 95.904 fps | 13.0 Мбит/сек
    Аудио: AC3 | 5.1 | 48 kHz | 448 kbps | 16 bit | Многоголосый закадровый - iTunes |

    MedifInfo

    Видео
    Идентификатор : 1
    Формат : AVC
    Формат/Информация : Advanced Video Codec
    Профиль формата : High@L4.1
    Настройки формата : CABAC / 4 Ref Frames
    Параметр CABAC формата : Да
    Параметр RefFrames формата : 4 кадра
    Идентификатор кодека : V_MPEG4/ISO/AVC
    Продолжительность : 1 ч. 36 м.
    Битрейт : 13,0 Мбит/сек
    Ширина : 1280 пикселей
    Высота : 536 пикселей
    Соотношение сторон : 2,40:1
    Режим частоты кадров : Постоянный
    Частота кадров : 95,904 (95904/1000) кадров/сек
    Цветовое пространство : YUV
    Субдискретизация насыщенности : 4:2:0
    Битовая глубина : 8 бит
    Тип развёртки : Прогрессивная
    Бит/(Пиксели*Кадры) : 0.198
    Размер потока : 8,75 Гбайт (97%)
    Заголовок : Альфа / Alpha (2018) BDRip 720p | 95 fps
    Библиотека кодирования : x264 core 152 r2851 ba24899
    Настройки программы : cabac=1 / ref=3 / deblock=1:-3:-3 / analyse=0x3:0x113 / me=hex / subme=7 / psy=1 / psy_rd=1.00:0.25 / mixed_ref=1 / me_range=16 / chroma_me=1 / trellis=1 / 8x8dct=1 / cqm=0 / deadzone=6,6 / fast_pskip=1 / chroma_qp_offset=-4 / threads=12 / lookahead_threads=2 / sliced_threads=0 / nr=0 / decimate=0 / interlaced=0 / bluray_compat=0 / constrained_intra=0 / bframes=3 / b_pyramid=2 / b_adapt=1 / b_bias=0 / direct=1 / weightb=1 / open_gop=0 / weightp=2 / keyint=959 / keyint_min=95 / scenecut=40 / intra_refresh=0 / rc_lookahead=40 / rc=2pass / mbtree=1 / bitrate=12999 / ratetol=1.0 / qcomp=0.80 / qpmin=0 / qpmax=69 / qpstep=4 / cplxblur=20.0 / qblur=0.5 / vbv_maxrate=62500 / vbv_bufsize=78125 / nal_hrd=none / filler=0 / ip_ratio=1.10 / aq=1:0.50
    Default : Да
    Forced : Нет
    Аудио
    Идентификатор : 2
    Формат : AC-3
    Формат/Информация : Audio Coding 3
    Идентификатор кодека : A_AC3
    Продолжительность : 1 ч. 36 м.
    Вид битрейта : Постоянный
    Битрейт : 384 Кбит/сек
    Каналы : 6 каналов
    Расположение каналов : Front: L C R, Side: L R, LFE
    Частота : 48,0 КГц
    Частота кадров : 31,250 кадров/сек (1536 SPF)
    Битовая глубина : 16 бит
    Метод сжатия : С потерями
    Размер потока : 265 Мбайт (3%)
    Заголовок : iTunes
    Язык : Russian
    ServiceKind/String : Complete Main
    Default : Да
    Forced : Да
    Меню
    00:00:00.000 : en:1
    00:07:43.713 : en:2
    00:10:56.071 : en:3
    00:16:56.639 : en:4
    00:21:43.299 : en:5
    00:25:54.967 : en:6
    00:32:36.618 : en:7
    00:38:19.251 : en:8
    00:42:37.383 : en:9
    00:47:54.323 : en:10
    00:54:07.404 : en:11
    00:59:27.222 : en:12
    01:07:08.975 : en:13
    01:14:08.727 : en:14
    01:18:56.264 : en:15
    01:25:42.294 : en:16
    --Внимание.
    Фильм находится в запароленном архиве !!!
    За приобретением ключа к архиву , писать в личку автору .

    https://60-fps.org/120fps.php
    Альфа (2018) BDRip 720p_95 fps.rar.torrent
    Зарегистрирован 2018-11-19 10:19
    47C040A11BE80B7ACD46A1666809B20BFA189F3B
    проверено
    5 раз
    0
    0
    Похожие Темы


Вы не можете начинать темы
Вы не можете отвечать на сообщения
Вы не можете редактировать свои сообщения
Вы не можете удалять свои сообщения
Вы не можете голосовать в опросах
Вы не можете прикреплять файлы к сообщениям
Вы можете скачивать файлы