[Цитировать]
Kryl

«From the studio that delivered The Lego Movie»- Информация
Название: Аисты
Оригинальное название: Storks
Год выхода: 2016
Жанр: Мультфильм, фэнтези, комедия, семейный, детский, полнометражный
Режиссер: Николас Столлер, Даг Свитлэнд
Сценарий: Николас Столлер
Продюсер: Гленн Фикарра, Джон Крейдман, Брэд Льюис
Персонажей озвучивали: Энди Сэмберг, Кэти Краун, Келси Грэммер, Дженнифер Энистон, Тай Буррелл, Антон Старкман, Кигэн-Майкл Ки, Джордан Пил, Дэнни Трехо, Стив Гликман
--Сюжет:
Аисты приносят детей… или, во всяком случае, раньше приносили. Теперь же они занимаются доставкой посылок для огромного сайта интернет-продаж. Джуниор, лучший аист в курьерской компании, должен пойти на повышение, но он случайно активирует машину для создания детей и получает очаровательную, но совершенно незапланированную девочку.
Пытаясь доставить эту «посылку» до того, как босс узнает о произошедшем, Джуниор и его подруга Лютик, единственный человек на Горе Аистов, решаются на свою первую доставку ребёнка и отправляются в безумное и насыщенное удивительными открытиями приключение, благодаря которому многие семьи могут стать полными, а аисты — вернуться к своей истинной миссии на Земле.
- Страна: США
Продолжительность: 01:26:57

Файл
Кодек: MPEG4/ISO/AVC/H.264
Формат: MKV
Качество: BDRip 1080p | 60 fps
Видео: 1920 x 804 (2.388) | 59.940 fps | 20.0 Мбит/сек
Аудио 1: AC3 | 5.1 | 48 kHz | 384 kbps | 16 bit | Дубляж - iTunes |
Аудио 3: AC3 | 5.1 | 48 kHz | 640 kbps | 16 bit | ENG |
Субтитры: Русские, Eng

MedifInfo

Видео
Идентификатор : 1
Формат : AVC
Формат/Информация : Advanced Video Codec
Профиль формата : High@L4.1
Параметр CABAC формата : Да
Параметр ReFrames формата : 5 кадров
Идентификатор кодека : V_MPEG4/ISO/AVC
Продолжительность : 1 ч. 26 м.
Битрейт : 20,0 Мбит/сек
Ширина : 1920 пикселей
Высота : 804 пикселя
Соотношение сторон : 2,40:1
Режим частоты кадров : Постоянный
Частота кадров : 59,880 кадров/сек
Частота кадров в оригинале : 59,940 кадров/сек
Цветовое пространство : YUV
Субдискретизация насыщенности : 4:2:0
Битовая глубина : 8 бит
Тип развёртки : Прогрессивная
Бит/(Пиксели*Кадры) : 0.216
Размер потока : 11,9 Гбайт (93%)
Заголовок : www.60-fps.org
Библиотека кодирования : x264 core 148 r2638 7599210
Настройки программы : cabac=1 / ref=5 / deblock=1:-3:-3 / analyse=0x3:0x113 / me=umh / subme=8 / psy=1 / psy_rd=1.00:0.25 / mixed_ref=1 / me_range=32 / chroma_me=1 / trellis=1 / 8x8dct=1 / cqm=0 / deadzone=6,6 / fast_pskip=1 / chroma_qp_offset=-4 / threads=12 / lookahead_threads=2 / sliced_threads=0 / nr=0 / decimate=0 / interlaced=0 / bluray_compat=0 / constrained_intra=0 / bframes=3 / b_pyramid=2 / b_adapt=2 / b_bias=0 / direct=3 / weightb=1 / open_gop=0 / weightp=2 / keyint=599 / keyint_min=59 / scenecut=40 / intra_refresh=0 / rc_lookahead=50 / rc=2pass / mbtree=1 / bitrate=20000 / ratetol=1.0 / qcomp=0.80 / qpmin=0 / qpmax=69 / qpstep=4 / cplxblur=20.0 / qblur=0.5 / vbv_maxrate=62500 / vbv_bufsize=78125 / nal_hrd=none / filler=0 / ip_ratio=1.10 / aq=1:0.50
Default : Да
Forced : Нет
Аудио #1
Идентификатор : 2
Формат : AC-3
Формат/Информация : Audio Coding 3
Расширение режима : CM (complete main)
Параметр Endianness формата : Big
Идентификатор кодека : A_AC3
Продолжительность : 1 ч. 26 м.
Вид битрейта : Постоянный
Битрейт : 384 Кбит/сек
Каналы : 6 каналов
Расположение каналов : Front: L C R, Side: L R, LFE
Частота : 48,0 КГц
Битовая глубина : 16 бит
Метод сжатия : С потерями
Размер потока : 239 Мбайт (2%)
Заголовок : Дубляж - iTunes
Язык : Russian
Default : Да
Forced : Нет
Аудио #2
Идентификатор : 3
Формат : AC-3
Формат/Информация : Audio Coding 3
Расширение режима : CM (complete main)
Параметр Endianness формата : Big
Идентификатор кодека : A_AC3
Продолжительность : 1 ч. 26 м.
Вид битрейта : Постоянный
Битрейт : 640 Кбит/сек
Каналы : 6 каналов
Расположение каналов : Front: L C R, Side: L R, LFE
Частота : 48,0 КГц
Битовая глубина : 16 бит
Метод сжатия : С потерями
Размер потока : 398 Мбайт (3%)
Заголовок : eng
Язык : English
Default : Нет
Forced : Нет
Текст #1
Идентификатор : 4
Формат : UTF-8
Идентификатор кодека : S_TEXT/UTF8
Идентификатор кодека/Информация : UTF-8 Plain Text
Заголовок : Forced
Язык : Russian
Default : Да
Forced : Нет
Текст #2
Идентификатор : 5
Формат : UTF-8
Идентификатор кодека : S_TEXT/UTF8
Идентификатор кодека/Информация : UTF-8 Plain Text
Заголовок : Full
Язык : English
Default : Нет
Forced : Нет
Меню
00:00:00.000 : en:Chapter 1
00:10:26.500 : en:Chapter 2
00:20:35.734 : en:Chapter 3
00:30:24.405 : en:Chapter 4
00:39:30.034 : en:Chapter 5
00:50:24.479 : en:Chapter 6
00:59:24.435 : en:Chapter 7
01:07:06.022 : en:Chapter 8
01:14:28.297 : en:Chapter 9
01:20:53.598 : en:Chapter 10

Релиз подготовлен 60 - fps

[60-fps.org].t2431.torrent
Торрент: Зарегистрирован [ 2017-01-06 13:40 ] · B06685ACAC524691FA20A2B8FEFB0087D5E21F17

Скачать .torrent

Скачать

32 KB

Статус: проверено
Скачан: 70 раз
Поблагодарили:
Размер: 12,77 GB
 

[Цитировать]
georg

Уважаемый Kryl. подскажите, что произошло с раздачей? Чудо на Гудзоне качалось 3 дня и сегодня после 11 гигов закаченных, вообще остановился. Аисты тоже, не раздаются. Технические проблемы?

[Цитировать]
Kryl

7027Уважаемый Kryl. подскажите, что произошло с раздачей? Чудо на Гудзоне качалось 3 дня и сегодня после 11 гигов закаченных, вообще остановился. Аисты тоже, не раздаются. Технические проблемы?
Проблемы с HDD , так как много раздаю , при повышении скорости диск тупить начинает ( , поэтому скорость пока 1мб будет ...

[Цитировать]
Талямба

Kryl, ставь навинки на раздачу только,остальные старые раздачи я стану,у меня фильмом 250 есть... Подмигиваю

[Цитировать]
Fender

А можно украинскую дорожку "допилить" сюда? Там есть несколько весьма неплохих шуток, которых в русской озвучке нет.

[Цитировать]
никита гётте

Встаньте кто нибудь на раздачу плиз Грущу
 
Показать сообщения:    

Текущее время: 24-Мар 07:15

Часовой пояс: UTC + 3


Вы не можете начинать темы
Вы не можете отвечать на сообщения
Вы не можете редактировать свои сообщения
Вы не можете удалять свои сообщения
Вы не можете голосовать в опросах
Вы не можете прикреплять файлы к сообщениям
Вы можете скачивать файлы